  0
SECTION
  2
HEADER
  9
$ACADVER
  1
AC1015
  9
$ACADMAINTVER
 70
     6
  9
$DWGCODEPAGE
  3
ANSI_1252
  9
$INSBASE
 10
0.0
 20
0.0
 30
0.0
  9
$EXTMIN
 10
0.0
 20
0.0
 30
0.0
  9
$EXTMAX
 10
11.0
 20
8.5
 30
0.0
  9
$LIMMIN
 10
0.0
 20
0.0
  9
$LIMMAX
 10
11.0
 20
8.5
  9
$ORTHOMODE
 70
     0
  9
$REGENMODE
 70
     1
  9
$FILLMODE
 70
     1
  9
$QTEXTMODE
 70
     0
  9
$MIRRTEXT
 70
     1
  9
$LTSCALE
 40
1.0
  9
$ATTMODE
 70
     1
  9
$TEXTSIZE
 40
0.1666666667
  9
$TRACEWID
 40
0.05
  9
$TEXTSTYLE
  7
Standard
  9
$CLAYER
  8
0
  9
$CELTYPE
  6
ByLayer
  9
$CECOLOR
 62
   256
  9
$CELTSCALE
 40
1.0
  9
$DISPSILH
 70
     0
  9
$DIMSCALE
 40
1.0
  9
$DIMASZ
 40
0.09
  9
$DIMEXO
 40
0.05
  9
$DIMDLI
 40
0.38
  9
$DIMRND
 40
0.0
  9
$DIMDLE
 40
0.0
  9
$DIMEXE
 40
0.0625
  9
$DIMTP
 40
0.0
  9
$DIMTM
 40
0.0
  9
$DIMTXT
 40
0.1666666667
  9
$DIMCEN
 40
0.09
  9
$DIMTSZ
 40
0.0
  9
$DIMTOL
 70
     0
  9
$DIMLIM
 70
     0
  9
$DIMTIH
 70
     1
  9
$DIMTOH
 70
     1
  9
$DIMSE1
 70
     0
  9
$DIMSE2
 70
     0
  9
$DIMTAD
 70
     0
  9
$DIMZIN
 70
     0
  9
$DIMBLK
  1

  9
$DIMASO
 70
     1
  9
$DIMSHO
 70
     1
  9
$DIMPOST
  1

  9
$DIMAPOST
  1

  9
$DIMALT
 70
     0
  9
$DIMALTD
 70
     2
  9
$DIMALTF
 40
25.4
  9
$DIMLFAC
 40
1.0
  9
$DIMTOFL
 70
     0
  9
$DIMTVP
 40
0.0
  9
$DIMTIX
 70
     0
  9
$DIMSOXD
 70
     0
  9
$DIMSAH
 70
     0
  9
$DIMBLK1
  1

  9
$DIMBLK2
  1

  9
$DIMSTYLE
  2
Standard
  9
$DIMCLRD
 70
     0
  9
$DIMCLRE
 70
     0
  9
$DIMCLRT
 70
     0
  9
$DIMTFAC
 40
1.0
  9
$DIMGAP
 40
0.06
  9
$DIMJUST
 70
     0
  9
$DIMSD1
 70
     0
  9
$DIMSD2
 70
     0
  9
$DIMTOLJ
 70
     1
  9
$DIMTZIN
 70
     0
  9
$DIMALTZ
 70
     0
  9
$DIMALTTZ
 70
     0
  9
$DIMUPT
 70
     0
  9
$DIMDEC
 70
     2
  9
$DIMTDEC
 70
     2
  9
$DIMALTU
 70
     2
  9
$DIMALTTD
 70
     2
  9
$DIMTXSTY
  7
Standard
  9
$DIMAUNIT
 70
     0
  9
$DIMADEC
 70
     0
  9
$DIMALTRND
 40
0.0
  9
$DIMAZIN
 70
     0
  9
$DIMDSEP
 70
    46
  9
$DIMATFIT
 70
     3
  9
$DIMFRAC
 70
     0
  9
$DIMLDRBLK
  1

  9
$DIMLUNIT
 70
     2
  9
$DIMLWD
 70
    -2
  9
$DIMLWE
 70
    -2
  9
$DIMTMOVE
 70
     0
  9
$LUNITS
 70
     2
  9
$LUPREC
 70
     2
  9
$SKETCHINC
 40
0.1
  9
$FILLETRAD
 40
0.5
  9
$AUNITS
 70
     0
  9
$AUPREC
 70
     0
  9
$MENU
  1
.
  9
$ELEVATION
 40
0.0
  9
$PELEVATION
 40
0.0
  9
$THICKNESS
 40
0.0
  9
$LIMCHECK
 70
     0
  9
$CHAMFERA
 40
0.5
  9
$CHAMFERB
 40
0.5
  9
$CHAMFERC
 40
1.0
  9
$CHAMFERD
 40
0.0
  9
$SKPOLY
 70
     0
  9
$TDCREATE
 40
2456041.567754445
  9
$TDUCREATE
 40
2456041.776087778
  9
$TDUPDATE
 40
2456041.567754456
  9
$TDUUPDATE
 40
2456041.776087789
  9
$TDINDWG
 40
0.0000000116
  9
$TDUSRTIMER
 40
0.0000000116
  9
$USRTIMER
 70
     1
  9
$ANGBASE
 50
0.0
  9
$ANGDIR
 70
     0
  9
$PDMODE
 70
     0
  9
$PDSIZE
 40
-1.0
  9
$PLINEWID
 40
0.0
  9
$SPLFRAME
 70
     0
  9
$SPLINETYPE
 70
     6
  9
$SPLINESEGS
 70
     8
  9
$HANDSEED
  5
296
  9
$SURFTAB1
 70
     6
  9
$SURFTAB2
 70
     6
  9
$SURFTYPE
 70
     6
  9
$SURFU
 70
     6
  9
$SURFV
 70
     6
  9
$UCSBASE
  2

  9
$UCSNAME
  2

  9
$UCSORG
 10
0.0
 20
0.0
 30
0.0
  9
$UCSXDIR
 10
1.0
 20
0.0
 30
0.0
  9
$UCSYDIR
 10
0.0
 20
1.0
 30
0.0
  9
$UCSORTHOREF
  2

  9
$UCSORTHOVIEW
 70
     0
  9
$UCSORGTOP
 10
0.0
 20
0.0
 30
0.0
  9
$UCSORGBOTTOM
 10
0.0
 20
0.0
 30
0.0
  9
$UCSORGLEFT
 10
0.0
 20
0.0
 30
0.0
  9
$UCSORGRIGHT
 10
0.0
 20
0.0
 30
0.0
  9
$UCSORGFRONT
 10
0.0
 20
0.0
 30
0.0
  9
$UCSORGBACK
 10
0.0
 20
0.0
 30
0.0
  9
$PUCSBASE
  2

  9
$PUCSNAME
  2

  9
$PUCSORG
 10
0.0
 20
0.0
 30
0.0
  9
$PUCSXDIR
 10
1.0
 20
0.0
 30
0.0
  9
$PUCSYDIR
 10
0.0
 20
1.0
 30
0.0
  9
$PUCSORTHOREF
  2

  9
$PUCSORTHOVIEW
 70
     0
  9
$PUCSORGTOP
 10
0.0
 20
0.0
 30
0.0
  9
$PUCSORGBOTTOM
 10
0.0
 20
0.0
 30
0.0
  9
$PUCSORGLEFT
 10
0.0
 20
0.0
 30
0.0
  9
$PUCSORGRIGHT
 10
0.0
 20
0.0
 30
0.0
  9
$PUCSORGFRONT
 10
0.0
 20
0.0
 30
0.0
  9
$PUCSORGBACK
 10
0.0
 20
0.0
 30
0.0
  9
$USERI1
 70
     0
  9
$USERI2
 70
     0
  9
$USERI3
 70
     0
  9
$USERI4
 70
     0
  9
$USERI5
 70
     0
  9
$USERR1
 40
0.0
  9
$USERR2
 40
0.0
  9
$USERR3
 40
0.0
  9
$USERR4
 40
0.0
  9
$USERR5
 40
0.0
  9
$WORLDVIEW
 70
     1
  9
$SHADEDGE
 70
     3
  9
$SHADEDIF
 70
    70
  9
$TILEMODE
 70
     1
  9
$MAXACTVP
 70
    64
  9
$PINSBASE
 10
0.0
 20
0.0
 30
0.0
  9
$PLIMCHECK
 70
     0
  9
$PEXTMIN
 10
1.0000000000E+20
 20
1.0000000000E+20
 30
1.0000000000E+20
  9
$PEXTMAX
 10
-1.0000000000E+20
 20
-1.0000000000E+20
 30
-1.0000000000E+20
  9
$PLIMMIN
 10
0.0
 20
0.0
  9
$PLIMMAX
 10
12.0
 20
9.0
  9
$UNITMODE
 70
     0
  9
$VISRETAIN
 70
     1
  9
$PLINEGEN
 70
     0
  9
$PSLTSCALE
 70
     1
  9
$TREEDEPTH
 70
  3020
  9
$CMLSTYLE
  2
Standard
  9
$CMLJUST
 70
     0
  9
$CMLSCALE
 40
1.0
  9
$PROXYGRAPHICS
 70
     1
  9
$MEASUREMENT
 70
     0
  9
$CELWEIGHT
370
    -1
  9
$ENDCAPS
280
     0
  9
$JOINSTYLE
280
     0
  9
$LWDISPLAY
290
     1
  9
$INSUNITS
 70
     1
  9
$HYPERLINKBASE
  1

  9
$STYLESHEET
  1

  9
$XEDIT
290
     1
  9
$CEPSNTYPE
380
     0
  9
$PSTYLEMODE
290
     1
  9
$FINGERPRINTGUID
  2
{2875114F-3392-4D2B-AB85-869858515656}
  9
$VERSIONGUID
  2
{FAEB1C32-E019-11D5-929B-00C0DF256EC4}
  9
$EXTNAMES
290
     1
  9
$PSVPSCALE
 40
0.0
  9
$OLESTARTUP
290
     0
  0
ENDSEC
  0
SECTION
  2
CLASSES
  0
CLASS
  1
ACDBDICTIONARYWDFLT
  2
AcDbDictionaryWithDefault
  3
ObjectDBX Classes
 90
        0
280
     0
281
     0
  0
CLASS
  1
VISUALSTYLE
  2
AcDbVisualStyle
  3
ObjectDBX Classes
 90
     4095
280
     0
281
     0
  0
CLASS
  1
MATERIAL
  2
AcDbMaterial
  3
ObjectDBX Classes
 90
     1153
280
     0
281
     0
  0
CLASS
  1
ACDBPLACEHOLDER
  2
AcDbPlaceHolder
  3
ObjectDBX Classes
 90
        0
280
     0
281
     0
  0
CLASS
  1
LAYOUT
  2
AcDbLayout
  3
ObjectDBX Classes
 90
        0
280
     0
281
     0
  0
ENDSEC
  0
SECTION
  2
TABLES
  0
TABLE
  2
VPORT
  5
8
330
0
100
AcDbSymbolTable
 70
     1
  0
VPORT
  5
29
330
8
100
AcDbSymbolTableRecord
100
AcDbViewportTableRecord
  2
*Active
 70
     0
 10
0.0
 20
0.0
 11
1.0
 21
1.0
 12
5.5
 22
4.25
 13
0.0
 23
0.0
 14
0.5
 24
0.5
 15
0.5
 25
0.5
 16
0.0
 26
0.0
 36
1.0
 17
0.0
 27
0.0
 37
0.0
 40
8.5
 41
1.2941176471
 42
50.0
 43
0.0
 44
0.0
 50
0.0
 51
0.0
 71
     0
 72
  2000
 73
     1
 74
     3
 75
     0
 76
     0
 77
     0
 78
     0
281
     0
 65
     1
110
0.0
120
0.0
130
0.0
111
1.0
121
0.0
131
0.0
112
0.0
122
1.0
132
0.0
 79
     0
146
0.0
  0
ENDTAB
  0
TABLE
  2
LTYPE
  5
5
330
0
100
AcDbSymbolTable
 70
     6
  0
LTYPE
  5
14
330
5
100
AcDbSymbolTableRecord
100
AcDbLinetypeTableRecord
  2
ByBlock
 70
     0
  3

 72
    65
 73
     0
 40
0.0
  0
LTYPE
  5
15
330
5
100
AcDbSymbolTableRecord
100
AcDbLinetypeTableRecord
  2
ByLayer
 70
     0
  3

 72
    65
 73
     0
 40
0.0
  0
LTYPE
  5
16
330
5
100
AcDbSymbolTableRecord
100
AcDbLinetypeTableRecord
  2
Continuous
 70
     0
  3
Solid line
 72
    65
 73
     0
 40
0.0
  0
LTYPE
  5
3F
330
5
100
AcDbSymbolTableRecord
100
AcDbLinetypeTableRecord
  2
HIDDEN
 70
     0
  3
Hidden __ __ __ __ __ __ __ __ __ __ __ __ __ __
 72
    65
 73
     2
 40
0.075
 49
0.05
 74
     0
 49
-0.025
 74
     0
  0
LTYPE
  5
40
330
5
100
AcDbSymbolTableRecord
100
AcDbLinetypeTableRecord
  2
PHANTOM
 70
     0
  3
Phantom ______  __  __  ______  __  __  ______
 72
    65
 73
     6
 40
0.5
 49
0.25
 74
     0
 49
-0.05
 74
     0
 49
0.05
 74
     0
 49
-0.05
 74
     0
 49
0.05
 74
     0
 49
-0.05
 74
     0
  0
LTYPE
  5
41
330
5
100
AcDbSymbolTableRecord
100
AcDbLinetypeTableRecord
  2
CENTER
 70
     0
  3
Center ____ _ ____ _ ____ _ ____ _ ____ _ ____
 72
    65
 73
     4
 40
0.4
 49
0.25
 74
     0
 49
-0.05
 74
     0
 49
0.05
 74
     0
 49
-0.05
 74
     0
  0
LTYPE
  5
42
330
5
100
AcDbSymbolTableRecord
100
AcDbLinetypeTableRecord
  2
CENTERX2
 70
     0
  3
Center (2x) ________  __  ________  __  _____
 72
    65
 73
     4
 40
0.8
 49
0.5
 74
     0
 49
-0.1
 74
     0
 49
0.1
 74
     0
 49
-0.1
 74
     0
  0
LTYPE
  5
43
330
5
100
AcDbSymbolTableRecord
100
AcDbLinetypeTableRecord
  2
DOT2
 70
     0
  3
Dot (.5x) ........................................
 72
    65
 73
     2
 40
0.025
 49
0.0
 74
     0
 49
-0.025
 74
     0
  0
ENDTAB
  0
TABLE
  2
LAYER
  5
2
330
0
100
AcDbSymbolTable
 70
     2
  0
LAYER
  5
10
330
2
100
AcDbSymbolTableRecord
100
AcDbLayerTableRecord
  2
0
 70
     0
 62
     7
  6
Continuous
370
    -3
390
F
  0
LAYER
  5
44
330
2
100
AcDbSymbolTableRecord
100
AcDbLayerTableRecord
  2
FORMAT
 70
     0
 62
     7
  6
Continuous
370
    -3
390
F
  0
ENDTAB
  0
TABLE
  2
STYLE
  5
3
330
0
100
AcDbSymbolTable
 70
     5
  0
STYLE
  5
11
330
3
100
AcDbSymbolTableRecord
100
AcDbTextStyleTableRecord
  2
Standard
 70
     0
 40
0.0
 41
1.0
 50
0.0
 71
     0
 42
0.2
  3
txt
  4

  0
STYLE
  5
6A
330
3
100
AcDbSymbolTableRecord
100
AcDbTextStyleTableRecord
  2
SLDTEXTSTYLE0
 70
     0
 40
0.0
 41
0.605
 50
0.0
 71
     0
 42
0.2
  3
TXT
  4

  0
STYLE
  5
6E
330
3
100
AcDbSymbolTableRecord
100
AcDbTextStyleTableRecord
  2
SLDTEXTSTYLE1
 70
     0
 40
0.0
 41
0.75
 50
0.0
 71
     0
 42
0.2
  3
TXT
  4

  0
STYLE
  5
8F
330
3
100
AcDbSymbolTableRecord
100
AcDbTextStyleTableRecord
  2
SLDTEXTSTYLE2
 70
     0
 40
0.0
 41
0.57
 50
0.0
 71
     0
 42
0.2
  3
TXT
  4

  0
STYLE
  5
9A
330
3
100
AcDbSymbolTableRecord
100
AcDbTextStyleTableRecord
  2
SLDTEXTSTYLE3
 70
     0
 40
0.0
 41
0.7
 50
0.0
 71
     0
 42
0.2
  3
TXT
  4

  0
ENDTAB
  0
TABLE
  2
VIEW
  5
6
330
0
100
AcDbSymbolTable
 70
     0
  0
ENDTAB
  0
TABLE
  2
UCS
  5
7
330
0
100
AcDbSymbolTable
 70
     0
  0
ENDTAB
  0
TABLE
  2
APPID
  5
9
330
0
100
AcDbSymbolTable
 70
     1
  0
APPID
  5
12
330
9
100
AcDbSymbolTableRecord
100
AcDbRegAppTableRecord
  2
ACAD
 70
     0
  0
ENDTAB
  0
TABLE
  2
DIMSTYLE
  5
A
330
0
100
AcDbSymbolTable
 70
     4
100
AcDbDimStyleTable
  0
DIMSTYLE
105
27
330
A
100
AcDbSymbolTableRecord
100
AcDbDimStyleTableRecord
  2
Standard
 70
     0
178
     0
340
11
  0
DIMSTYLE
105
231
102
{ACAD_REACTORS
330
230
330
248
102
}
330
A
100
AcDbSymbolTableRecord
100
AcDbDimStyleTableRecord
  2
SLDDIMSTYLE0
 70
     0
 41
0.09
 44
0.0
 45
0.000000001
 78
     4
 79
     1
140
0.1213378906
147
0.0303344727
173
     1
178
     0
271
     2
272
     2
276
     2
277
     5
284
    12
340
6A
  0
DIMSTYLE
105
23D
102
{ACAD_REACTORS
330
23C
330
253
330
25E
330
269
330
274
330
28B
102
}
330
A
100
AcDbSymbolTableRecord
100
AcDbDimStyleTableRecord
  2
SLDDIMSTYLE1
 70
     0
 41
0.09
 44
0.0
 45
0.000000001
 78
    12
 79
     3
140
0.1213378906
147
0.0303344727
173
     1
178
     0
271
     2
272
     2
276
     2
277
     5
284
    12
340
6A
  0
DIMSTYLE
105
280
102
{ACAD_REACTORS
330
27F
102
}
330
A
100
AcDbSymbolTableRecord
100
AcDbDimStyleTableRecord
  2
SLDDIMSTYLE2
 70
     0
 41
0.09
 44
0.0
 45
0.000000001
 78
     4
 79
     1
140
0.1213378906
147
0.0303344727
172
     1
173
     1
178
     0
271
     2
272
     2
276
     2
277
     5
284
    12
289
     0
340
6A
  0
ENDTAB
  0
TABLE
  2
BLOCK_RECORD
  5
1
330
0
100
AcDbSymbolTable
 70
    14
  0
BLOCK_RECORD
  5
1F
330
1
100
AcDbSymbolTableRecord
100
AcDbBlockTableRecord
  2
*Model_Space
340
22
  0
BLOCK_RECORD
  5
1B
330
1
100
AcDbSymbolTableRecord
100
AcDbBlockTableRecord
  2
*Paper_Space
340
1E
  0
BLOCK_RECORD
  5
23
330
1
100
AcDbSymbolTableRecord
100
AcDbBlockTableRecord
  2
*Paper_Space0
340
26
  0
BLOCK_RECORD
  5
75
330
1
100
AcDbSymbolTableRecord
100
AcDbBlockTableRecord
  2
SW_NOTE_0
340
0
102
{BLKREFS
331
8A
102
}
  0
BLOCK_RECORD
  5
9C
330
1
100
AcDbSymbolTableRecord
100
AcDbBlockTableRecord
  2
SW_NOTE_1
340
0
102
{BLKREFS
331
A2
102
}
  0
BLOCK_RECORD
  5
AA
330
1
100
AcDbSymbolTableRecord
100
AcDbBlockTableRecord
  2
SW_NOTE_2
340
0
102
{BLKREFS
331
AF
102
}
  0
BLOCK_RECORD
  5
B6
330
1
100
AcDbSymbolTableRecord
100
AcDbBlockTableRecord
  2
SW_NOTE_3
340
0
102
{BLKREFS
331
C0
102
}
  0
BLOCK_RECORD
  5
232
330
1
100
AcDbSymbolTableRecord
100
AcDbBlockTableRecord
  2
*D5
340
0
  0
BLOCK_RECORD
  5
23E
330
1
100
AcDbSymbolTableRecord
100
AcDbBlockTableRecord
  2
*D6
340
0
  0
BLOCK_RECORD
  5
249
330
1
100
AcDbSymbolTableRecord
100
AcDbBlockTableRecord
  2
*D7
340
0
  0
BLOCK_RECORD
  5
254
330
1
100
AcDbSymbolTableRecord
100
AcDbBlockTableRecord
  2
*D8
340
0
  0
BLOCK_RECORD
  5
25F
330
1
100
AcDbSymbolTableRecord
100
AcDbBlockTableRecord
  2
*D9
340
0
  0
BLOCK_RECORD
  5
26A
330
1
100
AcDbSymbolTableRecord
100
AcDbBlockTableRecord
  2
*D10
340
0
  0
BLOCK_RECORD
  5
275
330
1
100
AcDbSymbolTableRecord
100
AcDbBlockTableRecord
  2
*D11
340
0
  0
BLOCK_RECORD
  5
281
330
1
100
AcDbSymbolTableRecord
100
AcDbBlockTableRecord
  2
*D12
340
0
  0
BLOCK_RECORD
  5
28C
330
1
100
AcDbSymbolTableRecord
100
AcDbBlockTableRecord
  2
*D13
340
0
  0
ENDTAB
  0
ENDSEC
  0
SECTION
  2
BLOCKS
  0
BLOCK
  5
20
330
1F
100
AcDbEntity
  8
0
100
AcDbBlockBegin
  2
*Model_Space
 70
     0
 10
0.0
 20
0.0
 30
0.0
  3
*Model_Space
  1

  0
ENDBLK
  5
21
330
1F
100
AcDbEntity
  8
0
100
AcDbBlockEnd
  0
BLOCK
  5
1C
330
1B
100
AcDbEntity
 67
     1
  8
0
100
AcDbBlockBegin
  2
*Paper_Space
 70
     0
 10
0.0
 20
0.0
 30
0.0
  3
*Paper_Space
  1

  0
ENDBLK
  5
1D
330
1B
100
AcDbEntity
 67
     1
  8
0
100
AcDbBlockEnd
  0
BLOCK
  5
24
330
23
100
AcDbEntity
  8
0
100
AcDbBlockBegin
  2
*Paper_Space0
 70
     0
 10
0.0
 20
0.0
 30
0.0
  3
*Paper_Space0
  1

  0
ENDBLK
  5
25
330
23
100
AcDbEntity
  8
0
100
AcDbBlockEnd
  0
BLOCK
  5
76
330
75
100
AcDbEntity
  8
0
100
AcDbBlockBegin
  2
SW_NOTE_0
 70
     0
 10
0.0
 20
0.0
 30
0.0
  3
SW_NOTE_0
  1

  0
MTEXT
  5
78
330
75
100
AcDbEntity
  8
0
  6
Continuous
 62
     0
370
     0
100
AcDbMText
 10
0.0
 20
0.0939945227
 30
0.0
 40
0.0729166667
 41
0.0
 71
     1
 72
     1
  1
DIMENSIONS ARE IN INCHES
  7
SLDTEXTSTYLE0
 73
     1
 44
1.0
  0
MTEXT
  5
79
330
75
100
AcDbEntity
  8
0
  6
Continuous
 62
     0
370
     0
100
AcDbMText
 10
0.0
 20
-0.0032276984
 30
0.0
 40
0.0729166667
 41
0.0
 71
     1
 72
     1
  1
TOLERANCES:
  7
SLDTEXTSTYLE0
 73
     1
 44
1.0
  0
MTEXT
  5
7A
330
75
100
AcDbEntity
  8
0
  6
Continuous
 62
     0
370
     0
100
AcDbMText
 10
0.0
 20
-0.1004499194
 30
0.0
 40
0.0729166667
 41
0.0
 71
     1
 72
     1
  1
ANGULAR: MACH
  7
SLDTEXTSTYLE0
 73
     1
 44
1.0
  0
MTEXT
  5
7B
330
75
100
AcDbEntity
  8
0
  6
Continuous
 62
     0
370
     0
100
AcDbMText
 10
0.6523003846
 20
-0.1004499171
 30
0.0
 40
0.0729166667
 41
0.0
 71
     1
 72
     1
  1
%%p
  7
SLDTEXTSTYLE0
 73
     1
 44
1.0
  0
MTEXT
  5
7C
330
75
100
AcDbEntity
  8
0
  6
Continuous
 62
     0
370
     0
100
AcDbMText
 10
0.7411979125
 20
-0.1004499194
 30
0.0
 40
0.0729166667
 41
0.0
 71
     1
 72
     1
  1
1
  7
SLDTEXTSTYLE0
 73
     1
 44
1.0
  0
MTEXT
  5
7D
330
75
100
AcDbEntity
  8
0
  6
Continuous
 62
     0
370
     0
100
AcDbMText
 10
0.7819434936
 20
-0.1004499171
 30
0.0
 40
0.0729166667
 41
0.0
 71
     1
 72
     1
  1
%%d
  7
SLDTEXTSTYLE0
 73
     1
 44
1.0
  0
MTEXT
  5
7E
330
75
100
AcDbEntity
  8
0
  6
Continuous
 62
     0
370
     0
100
AcDbMText
 10
0.4329427083
 20
-0.1976721405
 30
0.0
 40
0.0729166667
 41
0.0
 71
     1
 72
     1
  1
BEND
  7
SLDTEXTSTYLE0
 73
     1
 44
1.0
  0
MTEXT
  5
7F
330
75
100
AcDbEntity
  8
0
  6
Continuous
 62
     0
370
     0
100
AcDbMText
 10
0.6588662821
 20
-0.1976721382
 30
0.0
 40
0.0729166667
 41
0.0
 71
     1
 72
     1
  1
%%p
  7
SLDTEXTSTYLE0
 73
     1
 44
1.0
  0
MTEXT
  5
80
330
75
100
AcDbEntity
  8
0
  6
Continuous
 62
     0
370
     0
100
AcDbMText
 10
0.74776381
 20
-0.1976721405
 30
0.0
 40
0.0729166667
 41
0.0
 71
     1
 72
     1
  1
2
  7
SLDTEXTSTYLE0
 73
     1
 44
1.0
  0
MTEXT
  5
81
330
75
100
AcDbEntity
  8
0
  6
Continuous
 62
     0
370
     0
100
AcDbMText
 10
0.7906023736
 20
-0.1976721382
 30
0.0
 40
0.0729166667
 41
0.0
 71
     1
 72
     1
  1
%%d
  7
SLDTEXTSTYLE0
 73
     1
 44
1.0
  0
MTEXT
  5
82
330
75
100
AcDbEntity
  8
0
  6
Continuous
 62
     0
370
     0
100
AcDbMText
 10
0.0
 20
-0.2948943615
 30
0.0
 40
0.0729166667
 41
0.0
 71
     1
 72
     1
  1
TWO PLACE DECIMAL
  7
SLDTEXTSTYLE0
 73
     1
 44
1.0
  0
MTEXT
  5
83
330
75
100
AcDbEntity
  8
0
  6
Continuous
 62
     0
370
     0
100
AcDbMText
 10
0.9206235849
 20
-0.2948943592
 30
0.0
 40
0.0729166667
 41
0.0
 71
     1
 72
     1
  1
%%p
  7
SLDTEXTSTYLE0
 73
     1
 44
1.0
  0
MTEXT
  5
84
330
75
100
AcDbEntity
  8
0
  6
Continuous
 62
     0
370
     0
100
AcDbMText
 10
1.0095211862
 20
-0.2948943615
 30
0.0
 40
0.0729166667
 41
0.0
 71
     1
 72
     1
  1
.03
  7
SLDTEXTSTYLE0
 73
     1
 44
1.0
  0
MTEXT
  5
85
330
75
100
AcDbEntity
  8
0
  6
Continuous
 62
     0
370
     0
100
AcDbMText
 10
0.0
 20
-0.3921165825
 30
0.0
 40
0.0729166667
 41
0.0
 71
     1
 72
     1
  1
THREE PLACE DECIMAL
  7
SLDTEXTSTYLE0
 73
     1
 44
1.0
  0
MTEXT
  5
86
330
75
100
AcDbEntity
  8
0
  6
Continuous
 62
     0
370
     0
100
AcDbMText
 10
0.956592436
 20
-0.3921165803
 30
0.0
 40
0.0729166667
 41
0.0
 71
     1
 72
     1
  1
%%p
  7
SLDTEXTSTYLE0
 73
     1
 44
1.0
  0
MTEXT
  5
87
330
75
100
AcDbEntity
  8
0
  6
Continuous
 62
     0
370
     0
100
AcDbMText
 10
1.045489964
 20
-0.3921165825
 30
0.0
 40
0.0729166667
 41
0.0
 71
     1
 72
     1
  1
.015
  7
SLDTEXTSTYLE0
 73
     1
 44
1.0
  0
MTEXT
  5
88
330
75
100
AcDbEntity
  8
0
  6
Continuous
 62
     0
370
     0
100
AcDbMText
 10
0.0
 20
-0.4893388036
 30
0.0
 40
0.0729166667
 41
0.0
 71
     1
 72
     1
  1
REMOVE ALL BURRS AND
  7
SLDTEXTSTYLE0
 73
     1
 44
1.0
  0
MTEXT
  5
89
330
75
100
AcDbEntity
  8
0
  6
Continuous
 62
     0
370
     0
100
AcDbMText
 10
0.0
 20
-0.5865610246
 30
0.0
 40
0.0729166667
 41
0.0
 71
     1
 72
     1
  1
SHARP EDGES
  7
SLDTEXTSTYLE0
 73
     1
 44
1.0
  0
ENDBLK
  5
77
330
75
100
AcDbEntity
  8
0
100
AcDbBlockEnd
  0
BLOCK
  5
9D
330
9C
100
AcDbEntity
  8
0
100
AcDbBlockBegin
  2
SW_NOTE_1
 70
     0
 10
0.0
 20
0.0
 30
0.0
  3
SW_NOTE_1
  1

  0
MTEXT
  5
9F
330
9C
100
AcDbEntity
  8
0
  6
Continuous
 62
     0
370
     0
100
AcDbMText
 10
1.013671875
 20
0.1611334675
 30
0.0
 40
0.125
 41
0.0
 71
     2
 72
     1
  1
LINEAR SLOT DIFFUSER,
  7
SLDTEXTSTYLE0
 73
     1
 44
1.0
  0
MTEXT
  5
A0
330
9C
100
AcDbEntity
  8
0
  6
Continuous
 62
     0
370
     0
100
AcDbMText
 10
1.007363998
 20
-0.0055331972
 30
0.0
 40
0.125
 41
0.0
 71
     2
 72
     1
  1
HT PATTERN CONTROLLER
  7
SLDTEXTSTYLE0
 73
     1
 44
1.0
  0
MTEXT
  5
A1
330
9C
100
AcDbEntity
  8
0
  6
Continuous
 62
     0
370
     0
100
AcDbMText
 10
1.002647603
 20
-0.1721998618
 30
0.0
 40
0.125
 41
0.0
 71
     2
 72
     1
  1
FL-10 2CRA TYPE 22
  7
SLDTEXTSTYLE0
 73
     1
 44
1.0
  0
ENDBLK
  5
9E
330
9C
100
AcDbEntity
  8
0
100
AcDbBlockEnd
  0
BLOCK
  5
AB
330
AA
100
AcDbEntity
  8
0
100
AcDbBlockBegin
  2
SW_NOTE_2
 70
     0
 10
0.0
 20
0.0
 30
0.0
  3
SW_NOTE_2
  1

  0
MTEXT
  5
AD
330
AA
100
AcDbEntity
  8
0
  6
Continuous
 62
     0
370
     0
100
AcDbMText
 10
0.5166015625
 20
0.0805667337
 30
0.0
 40
0.0625
 41
0.0
 71
     2
 72
     1
  1
DIMENSIONS IN PARENTHESIS
  7
SLDTEXTSTYLE0
 73
     1
 44
1.0
  0
MTEXT
  5
AE
330
AA
100
AcDbEntity
  8
0
  6
Continuous
 62
     0
370
     0
100
AcDbMText
 10
0.5115017811
 20
-0.0027665986
 30
0.0
 40
0.0625
 41
0.0
 71
     2
 72
     1
  1
ARE FOR REFERENCE ONLY
  7
SLDTEXTSTYLE0
 73
     1
 44
1.0
  0
ENDBLK
  5
AC
330
AA
100
AcDbEntity
  8
0
100
AcDbBlockEnd
  0
BLOCK
  5
B7
330
B6
100
AcDbEntity
  8
0
100
AcDbBlockBegin
  2
SW_NOTE_3
 70
     0
 10
0.0
 20
0.0
 30
0.0
  3
SW_NOTE_3
  1

  0
MTEXT
  5
B9
330
B6
100
AcDbEntity
  8
0
  6
Continuous
 62
     0
370
     0
100
AcDbMText
 10
0.7747395833
 20
0.0939945227
 30
0.0
 40
0.0729166667
 41
0.0
 71
     2
 72
     1
  1
THE INFORMATION CONTAINED IN THIS
  7
SLDTEXTSTYLE0
 73
     1
 44
1.0
  0
MTEXT
  5
BA
330
B6
100
AcDbEntity
  8
0
  6
Continuous
 62
     0
370
     0
100
AcDbMText
 10
0.7736256762
 20
-0.0032276984
 30
0.0
 40
0.0729166667
 41
0.0
 71
     2
 72
     1
  1
DRAWING IS THE SOLE PROPERTY OF
  7
SLDTEXTSTYLE0
 73
     1
 44
1.0
  0
MTEXT
  5
BB
330
B6
100
AcDbEntity
  8
0
  6
Continuous
 62
     0
370
     0
100
AcDbMText
 10
0.7601056673
 20
-0.1004499194
 30
0.0
 40
0.0729166667
 41
0.0
 71
     2
 72
     1
  1
AIR SYSTEM COMPONENTS.  ANY
  7
SLDTEXTSTYLE0
 73
     1
 44
1.0
  0
MTEXT
  5
BC
330
B6
100
AcDbEntity
  8
0
  6
Continuous
 62
     0
370
     0
100
AcDbMText
 10
0.7681062274
 20
-0.1976721405
 30
0.0
 40
0.0729166667
 41
0.0
 71
     2
 72
     1
  1
REPRODUCTION IN PART OR AS A
  7
SLDTEXTSTYLE0
 73
     1
 44
1.0
  0
MTEXT
  5
BD
330
B6
100
AcDbEntity
  8
0
  6
Continuous
 62
     0
370
     0
100
AcDbMText
 10
0.7570675444
 20
-0.2948943615
 30
0.0
 40
0.0729166667
 41
0.0
 71
     2
 72
     1
  1
WHOLE WITHOUT THE WRITTEN
  7
SLDTEXTSTYLE0
 73
     1
 44
1.0
  0
MTEXT
  5
BE
330
B6
100
AcDbEntity
  8
0
  6
Continuous
 62
     0
370
     0
100
AcDbMText
 10
0.7712373423
 20
-0.3921165825
 30
0.0
 40
0.0729166667
 41
0.0
 71
     2
 72
     1
  1
PERMISSION OF AIR SYSTEM
  7
SLDTEXTSTYLE0
 73
     1
 44
1.0
  0
MTEXT
  5
BF
330
B6
100
AcDbEntity
  8
0
  6
Continuous
 62
     0
370
     0
100
AcDbMText
 10
0.771490488
 20
-0.4893388036
 30
0.0
 40
0.0729166667
 41
0.0
 71
     2
 72
     1
  1
COMPONENTS IS PROHIBITED.
  7
SLDTEXTSTYLE0
 73
     1
 44
1.0
  0
ENDBLK
  5
B8
330
B6
100
AcDbEntity
  8
0
100
AcDbBlockEnd
  0
BLOCK
  5
233
330
232
100
AcDbEntity
  8
0
100
AcDbBlockBegin
  2
*D5
 70
     1
 10
0.0
 20
0.0
 30
0.0
  3
*D5
  1

  0
SOLID
  5
235
330
232
100
AcDbEntity
  8
FORMAT
100
AcDbTrace
 10
3.8811360778
 20
2.8446103586
 30
0.0
 11
3.9711360778
 21
2.8291103586
 31
0.0
 12
3.9711360778
 22
2.8601103586
 32
0.0
 13
3.9711360778
 23
2.8601103586
 33
0.0
  0
SOLID
  5
236
330
232
100
AcDbEntity
  8
FORMAT
100
AcDbTrace
 10
4.8786360778
 20
2.8446103586
 30
0.0
 11
4.7886360778
 21
2.8601103586
 31
0.0
 12
4.7886360778
 22
2.8291103586
 32
0.0
 13
4.7886360778
 23
2.8291103586
 33
0.0
  0
LINE
  5
237
330
232
100
AcDbEntity
  8
FORMAT
100
AcDbLine
 10
3.8811360778
 20
3.1841641643
 30
0.0
 11
3.8811360778
 21
2.7821103586
 31
0.0
  0
LINE
  5
238
330
232
100
AcDbEntity
  8
FORMAT
100
AcDbLine
 10
4.8786360778
 20
3.2250641643
 30
0.0
 11
4.8786360778
 21
2.7821103586
 31
0.0
  0
LINE
  5
239
330
232
100
AcDbEntity
  8
FORMAT
100
AcDbLine
 10
3.8811360778
 20
2.8446103586
 30
0.0
 11
4.1553506685
 21
2.8446103586
 31
0.0
  0
LINE
  5
23A
330
232
100
AcDbEntity
  8
FORMAT
100
AcDbLine
 10
4.8786360778
 20
2.8446103586
 30
0.0
 11
4.604421487
 21
2.8446103586
 31
0.0
  0
MTEXT
  5
23B
330
232
100
AcDbEntity
  8
FORMAT
100
AcDbMText
 10
4.2178506685
 20
2.9126158901
 30
0.0
 40
0.125
 41
0.0
 71
     1
 72
     1
  1
1.00
  7
SLDTEXTSTYLE0
 73
     1
 44
1.0
  0
ENDBLK
  5
234
330
232
100
AcDbEntity
  8
0
100
AcDbBlockEnd
  0
BLOCK
  5
23F
330
23E
100
AcDbEntity
  8
0
100
AcDbBlockBegin
  2
*D6
 70
     1
 10
0.0
 20
0.0
 30
0.0
  3
*D6
  1

  0
SOLID
  5
241
330
23E
100
AcDbEntity
  8
FORMAT
100
AcDbTrace
 10
4.8786360778
 20
2.8446103586
 30
0.0
 11
4.9686360778
 21
2.8291103586
 31
0.0
 12
4.9686360778
 22
2.8601103586
 32
0.0
 13
4.9686360778
 23
2.8601103586
 33
0.0
  0
SOLID
  5
242
330
23E
100
AcDbEntity
  8
FORMAT
100
AcDbTrace
 10
6.3156360778
 20
2.8446103586
 30
0.0
 11
6.2256360778
 21
2.8601103586
 31
0.0
 12
6.2256360778
 22
2.8291103586
 32
0.0
 13
6.2256360778
 23
2.8291103586
 33
0.0
  0
LINE
  5
243
330
23E
100
AcDbEntity
  8
FORMAT
100
AcDbLine
 10
4.8786360778
 20
3.2250641643
 30
0.0
 11
4.8786360778
 21
2.7821103586
 31
0.0
  0
LINE
  5
244
330
23E
100
AcDbEntity
  8
FORMAT
100
AcDbLine
 10
6.3156360778
 20
3.2250641643
 30
0.0
 11
6.3156360778
 21
2.7821103586
 31
0.0
  0
LINE
  5
245
330
23E
100
AcDbEntity
  8
FORMAT
100
AcDbLine
 10
4.8786360778
 20
2.8446103586
 30
0.0
 11
5.3726006685
 21
2.8446103586
 31
0.0
  0
LINE
  5
246
330
23E
100
AcDbEntity
  8
FORMAT
100
AcDbLine
 10
6.3156360778
 20
2.8446103586
 30
0.0
 11
5.821671487
 21
2.8446103586
 31
0.0
  0
MTEXT
  5
247
330
23E
100
AcDbEntity
  8
FORMAT
100
AcDbMText
 10
5.4351006685
 20
2.9126158901
 30
0.0
 40
0.125
 41
0.0
 71
     1
 72
     1
  1
1.44
  7
SLDTEXTSTYLE0
 73
     1
 44
1.0
  0
ENDBLK
  5
240
330
23E
100
AcDbEntity
  8
0
100
AcDbBlockEnd
  0
BLOCK
  5
24A
330
249
100
AcDbEntity
  8
0
100
AcDbBlockBegin
  2
*D7
 70
     1
 10
0.0
 20
0.0
 30
0.0
  3
*D7
  1

  0
SOLID
  5
24C
330
249
100
AcDbEntity
  8
FORMAT
100
AcDbTrace
 10
6.3156360778
 20
2.8446103586
 30
0.0
 11
6.4056360778
 21
2.8291103586
 31
0.0
 12
6.4056360778
 22
2.8601103586
 32
0.0
 13
6.4056360778
 23
2.8601103586
 33
0.0
  0
SOLID
  5
24D
330
249
100
AcDbEntity
  8
FORMAT
100
AcDbTrace
 10
7.3131360778
 20
2.8446103586
 30
0.0
 11
7.2231360778
 21
2.8601103586
 31
0.0
 12
7.2231360778
 22
2.8291103586
 32
0.0
 13
7.2231360778
 23
2.8291103586
 33
0.0
  0
LINE
  5
24E
330
249
100
AcDbEntity
  8
FORMAT
100
AcDbLine
 10
6.3156360778
 20
3.2250641643
 30
0.0
 11
6.3156360778
 21
2.7821103586
 31
0.0
  0
LINE
  5
24F
330
249
100
AcDbEntity
  8
FORMAT
100
AcDbLine
 10
7.3131360778
 20
3.1841641643
 30
0.0
 11
7.3131360778
 21
2.7821103586
 31
0.0
  0
LINE
  5
250
330
249
100
AcDbEntity
  8
FORMAT
100
AcDbLine
 10
6.3156360778
 20
2.8446103586
 30
0.0
 11
6.5898506685
 21
2.8446103586
 31
0.0
  0
LINE
  5
251
330
249
100
AcDbEntity
  8
FORMAT
100
AcDbLine
 10
7.3131360778
 20
2.8446103586
 30
0.0
 11
7.038921487
 21
2.8446103586
 31
0.0
  0
MTEXT
  5
252
330
249
100
AcDbEntity
  8
FORMAT
100
AcDbMText
 10
6.6523506685
 20
2.9126158901
 30
0.0
 40
0.125
 41
0.0
 71
     1
 72
     1
  1
1.00
  7
SLDTEXTSTYLE0
 73
     1
 44
1.0
  0
ENDBLK
  5
24B
330
249
100
AcDbEntity
  8
0
100
AcDbBlockEnd
  0
BLOCK
  5
255
330
254
100
AcDbEntity
  8
0
100
AcDbBlockBegin
  2
*D8
 70
     1
 10
0.0
 20
0.0
 30
0.0
  3
*D8
  1

  0
SOLID
  5
257
330
254
100
AcDbEntity
  8
FORMAT
100
AcDbTrace
 10
7.3131360778
 20
2.8446103586
 30
0.0
 11
7.4031360778
 21
2.8291103586
 31
0.0
 12
7.4031360778
 22
2.8601103586
 32
0.0
 13
7.4031360778
 23
2.8601103586
 33
0.0
  0
SOLID
  5
258
330
254
100
AcDbEntity
  8
FORMAT
100
AcDbTrace
 10
8.9381360778
 20
2.8446103586
 30
0.0
 11
8.8481360778
 21
2.8601103586
 31
0.0
 12
8.8481360778
 22
2.8291103586
 32
0.0
 13
8.8481360778
 23
2.8291103586
 33
0.0
  0
LINE
  5
259
330
254
100
AcDbEntity
  8
FORMAT
100
AcDbLine
 10
7.3131360778
 20
3.1841641643
 30
0.0
 11
7.3131360778
 21
2.7821103586
 31
0.0
  0
LINE
  5
25A
330
254
100
AcDbEntity
  8
FORMAT
100
AcDbLine
 10
8.9381360778
 20
3.246962462
 30
0.0
 11
8.9381360778
 21
2.7821103586
 31
0.0
  0
LINE
  5
25B
330
254
100
AcDbEntity
  8
FORMAT
100
AcDbLine
 10
7.3131360778
 20
2.8446103586
 30
0.0
 11
7.9011006685
 21
2.8446103586
 31
0.0
  0
LINE
  5
25C
330
254
100
AcDbEntity
  8
FORMAT
100
AcDbLine
 10
8.9381360778
 20
2.8446103586
 30
0.0
 11
8.350171487
 21
2.8446103586
 31
0.0
  0
MTEXT
  5
25D
330
254
100
AcDbEntity
  8
FORMAT
100
AcDbMText
 10
7.9636006685
 20
2.9126158901
 30
0.0
 40
0.125
 41
0.0
 71
     1
 72
     1
  1
1.63
  7
SLDTEXTSTYLE0
 73
     1
 44
1.0
  0
ENDBLK
  5
256
330
254
100
AcDbEntity
  8
0
100
AcDbBlockEnd
  0
BLOCK
  5
260
330
25F
100
AcDbEntity
  8
0
100
AcDbBlockBegin
  2
*D9
 70
     1
 10
0.0
 20
0.0
 30
0.0
  3
*D9
  1

  0
SOLID
  5
262
330
25F
100
AcDbEntity
  8
FORMAT
100
AcDbTrace
 10
8.9381360778
 20
2.3704712723
 30
0.0
 11
8.8481360778
 21
2.3859712723
 31
0.0
 12
8.8481360778
 22
2.3549712723
 32
0.0
 13
8.8481360778
 23
2.3549712723
 33
0.0
  0
SOLID
  5
263
330
25F
100
AcDbEntity
  8
FORMAT
100
AcDbTrace
 10
2.2561360778
 20
2.3704712723
 30
0.0
 11
2.3461360778
 21
2.3549712723
 31
0.0
 12
2.3461360778
 22
2.3859712723
 32
0.0
 13
2.3461360778
 23
2.3859712723
 33
0.0
  0
LINE
  5
264
330
25F
100
AcDbEntity
  8
FORMAT
100
AcDbLine
 10
8.9381360778
 20
3.246962462
 30
0.0
 11
8.9381360778
 21
2.3079712723
 31
0.0
  0
LINE
  5
265
330
25F
100
AcDbEntity
  8
FORMAT
100
AcDbLine
 10
2.2561360778
 20
3.246962462
 30
0.0
 11
2.2561360778
 21
2.3079712723
 31
0.0
  0
LINE
  5
266
330
25F
100
AcDbEntity
  8
FORMAT
100
AcDbLine
 10
8.9381360778
 20
2.3704712723
 30
0.0
 11
5.821671487
 21
2.3704712723
 31
0.0
  0
LINE
  5
267
330
25F
100
AcDbEntity
  8
FORMAT
100
AcDbLine
 10
2.2561360778
 20
2.3704712723
 30
0.0
 11
5.3726006685
 21
2.3704712723
 31
0.0
  0
MTEXT
  5
268
330
25F
100
AcDbEntity
  8
FORMAT
100
AcDbMText
 10
5.4351006685
 20
2.4384768038
 30
0.0
 40
0.125
 41
0.0
 71
     1
 72
     1
  1
6.68
  7
SLDTEXTSTYLE0
 73
     1
 44
1.0
  0
ENDBLK
  5
261
330
25F
100
AcDbEntity
  8
0
100
AcDbBlockEnd
  0
BLOCK
  5
26B
330
26A
100
AcDbEntity
  8
0
100
AcDbBlockBegin
  2
*D10
 70
     1
 10
0.0
 20
0.0
 30
0.0
  3
*D10
  1

  0
SOLID
  5
26D
330
26A
100
AcDbEntity
  8
FORMAT
100
AcDbTrace
 10
8.1871360778
 20
5.3293846368
 30
0.0
 11
8.0971360778
 21
5.3448846368
 31
0.0
 12
8.0971360778
 22
5.3138846368
 32
0.0
 13
8.0971360778
 23
5.3138846368
 33
0.0
  0
SOLID
  5
26E
330
26A
100
AcDbEntity
  8
FORMAT
100
AcDbTrace
 10
3.0071360778
 20
5.3293846368
 30
0.0
 11
3.0971360778
 21
5.3138846368
 31
0.0
 12
3.0971360778
 22
5.3448846368
 32
0.0
 13
3.0971360778
 23
5.3448846368
 33
0.0
  0
LINE
  5
26F
330
26A
100
AcDbEntity
  8
FORMAT
100
AcDbLine
 10
8.1871360778
 20
4.9781641643
 30
0.0
 11
8.1871360778
 21
5.3918846368
 31
0.0
  0
LINE
  5
270
330
26A
100
AcDbEntity
  8
FORMAT
100
AcDbLine
 10
3.0071360778
 20
5.0323764423
 30
0.0
 11
3.0071360778
 21
5.3918846368
 31
0.0
  0
LINE
  5
271
330
26A
100
AcDbEntity
  8
FORMAT
100
AcDbLine
 10
8.1871360778
 20
5.3293846368
 30
0.0
 11
5.4592564876
 21
5.3293846368
 31
0.0
  0
LINE
  5
272
330
26A
100
AcDbEntity
  8
FORMAT
100
AcDbLine
 10
3.0071360778
 20
5.3293846368
 30
0.0
 11
5.0101856691
 21
5.3293846368
 31
0.0
  0
MTEXT
  5
273
330
26A
100
AcDbEntity
  8
FORMAT
100
AcDbMText
 10
5.0726856691
 20
5.3973901683
 30
0.0
 40
0.125
 41
0.0
 71
     1
 72
     1
  1
5.18
  7
SLDTEXTSTYLE0
 73
     1
 44
1.0
  0
ENDBLK
  5
26C
330
26A
100
AcDbEntity
  8
0
100
AcDbBlockEnd
  0
BLOCK
  5
276
330
275
100
AcDbEntity
  8
0
100
AcDbBlockBegin
  2
*D11
 70
     1
 10
0.0
 20
0.0
 30
0.0
  3
*D11
  1

  0
SOLID
  5
278
330
275
100
AcDbEntity
  8
FORMAT
100
AcDbTrace
 10
0.7793499712
 20
3.3221641643
 30
0.0
 11
0.7948499712
 21
3.4121641643
 31
0.0
 12
0.7638499712
 22
3.4121641643
 32
0.0
 13
0.7638499712
 23
3.4121641643
 33
0.0
  0
SOLID
  5
279
330
275
100
AcDbEntity
  8
FORMAT
100
AcDbTrace
 10
0.7793499712
 20
4.9431641643
 30
0.0
 11
0.7638499712
 21
4.8531641643
 31
0.0
 12
0.7948499712
 22
4.8531641643
 32
0.0
 13
0.7948499712
 23
4.8531641643
 33
0.0
  0
LINE
  5
27A
330
275
100
AcDbEntity
  8
FORMAT
100
AcDbLine
 10
2.2211360778
 20
3.3221641643
 30
0.0
 11
0.7168499712
 21
3.3221641643
 31
0.0
  0
LINE
  5
27B
330
275
100
AcDbEntity
  8
FORMAT
100
AcDbLine
 10
2.9721360778
 20
4.9431641643
 30
0.0
 11
0.7168499712
 21
4.9431641643
 31
0.0
  0
LINE
  5
27C
330
275
100
AcDbEntity
  8
FORMAT
100
AcDbLine
 10
0.7793499712
 20
3.3221641643
 30
0.0
 11
0.7793499712
 21
4.0395362284
 31
0.0
  0
LINE
  5
27D
330
275
100
AcDbEntity
  8
FORMAT
100
AcDbLine
 10
0.7793499712
 20
4.9431641643
 30
0.0
 11
0.7793499712
 21
4.2257921003
 31
0.0
  0
MTEXT
  5
27E
330
275
100
AcDbEntity
  8
FORMAT
100
AcDbMText
 10
0.617314562
 20
4.2006696959
 30
0.0
 40
0.125
 41
0.0
 71
     1
 72
     1
  1
1.62
  7
SLDTEXTSTYLE0
 73
     1
 44
1.0
  0
ENDBLK
  5
277
330
275
100
AcDbEntity
  8
0
100
AcDbBlockEnd
  0
BLOCK
  5
282
330
281
100
AcDbEntity
  8
0
100
AcDbBlockBegin
  2
*D12
 70
     1
 10
0.0
 20
0.0
 30
0.0
  3
*D12
  1

  0
SOLID
  5
284
330
281
100
AcDbEntity
  8
FORMAT
100
AcDbTrace
 10
9.8842910174
 20
3.3221641643
 30
0.0
 11
9.8687910174
 21
3.2321641643
 31
0.0
 12
9.8997910174
 22
3.2321641643
 32
0.0
 13
9.8997910174
 23
3.2321641643
 33
0.0
  0
SOLID
  5
285
330
281
100
AcDbEntity
  8
FORMAT
100
AcDbTrace
 10
9.8842910174
 20
3.8121641643
 30
0.0
 11
9.8997910174
 21
3.9021641643
 31
0.0
 12
9.8687910174
 22
3.9021641643
 32
0.0
 13
9.8687910174
 23
3.9021641643
 33
0.0
  0
LINE
  5
286
330
281
100
AcDbEntity
  8
FORMAT
100
AcDbLine
 10
8.9731360778
 20
3.3221641643
 30
0.0
 11
9.9467910174
 21
3.3221641643
 31
0.0
  0
LINE
  5
287
330
281
100
AcDbEntity
  8
FORMAT
100
AcDbLine
 10
9.5036360778
 20
3.8121641643
 30
0.0
 11
9.9467910174
 21
3.8121641643
 31
0.0
  0
LINE
  5
288
330
281
100
AcDbEntity
  8
FORMAT
100
AcDbLine
 10
9.8842910174
 20
3.3221641643
 30
0.0
 11
9.8842910174
 21
3.1321641643
 31
0.0
  0
LINE
  5
289
330
281
100
AcDbEntity
  8
FORMAT
100
AcDbLine
 10
9.8842910174
 20
3.8121641643
 30
0.0
 11
9.8842910174
 21
4.0021641643
 31
0.0
  0
MTEXT
  5
28A
330
281
100
AcDbEntity
  8
FORMAT
100
AcDbMText
 10
9.7685881704
 20
3.6334633299
 30
0.0
 40
0.125
 41
0.0
 71
     1
 72
     1
  1
.50
  7
SLDTEXTSTYLE0
 73
     1
 44
1.0
  0
ENDBLK
  5
283
330
281
100
AcDbEntity
  8
0
100
AcDbBlockEnd
  0
BLOCK
  5
28D
330
28C
100
AcDbEntity
  8
0
100
AcDbBlockBegin
  2
*D13
 70
     1
 10
0.0
 20
0.0
 30
0.0
  3
*D13
  1

  0
SOLID
  5
28F
330
28C
100
AcDbEntity
  8
FORMAT
100
AcDbTrace
 10
1.2415127551
 20
3.3221641643
 30
0.0
 11
1.2570127551
 21
3.4121641643
 31
0.0
 12
1.2260127551
 22
3.4121641643
 32
0.0
 13
1.2260127551
 23
3.4121641643
 33
0.0
  0
SOLID
  5
290
330
28C
100
AcDbEntity
  8
FORMAT
100
AcDbTrace
 10
1.2415127551
 20
3.9371641643
 30
0.0
 11
1.2260127551
 21
3.8471641643
 31
0.0
 12
1.2570127551
 22
3.8471641643
 32
0.0
 13
1.2570127551
 23
3.8471641643
 33
0.0
  0
LINE
  5
291
330
28C
100
AcDbEntity
  8
FORMAT
100
AcDbLine
 10
2.2211360778
 20
3.3221641643
 30
0.0
 11
1.1790127551
 21
3.3221641643
 31
0.0
  0
LINE
  5
292
330
28C
100
AcDbEntity
  8
FORMAT
100
AcDbLine
 10
1.6906360778
 20
3.9371641643
 30
0.0
 11
1.1790127551
 21
3.9371641643
 31
0.0
  0
LINE
  5
293
330
28C
100
AcDbEntity
  8
FORMAT
100
AcDbLine
 10
1.2415127551
 20
3.3221641643
 30
0.0
 11
1.2415127551
 21
3.5365362284
 31
0.0
  0
LINE
  5
294
330
28C
100
AcDbEntity
  8
FORMAT
100
AcDbLine
 10
1.2415127551
 20
3.9371641643
 30
0.0
 11
1.2415127551
 21
3.7227921003
 31
0.0
  0
MTEXT
  5
295
330
28C
100
AcDbEntity
  8
FORMAT
100
AcDbMText
 10
1.1258099082
 20
3.6976696959
 30
0.0
 40
0.125
 41
0.0
 71
     1
 72
     1
  1
.62
  7
SLDTEXTSTYLE0
 73
     1
 44
1.0
  0
ENDBLK
  5
28E
330
28C
100
AcDbEntity
  8
0
100
AcDbBlockEnd
  0
ENDSEC
  0
SECTION
  2
ENTITIES
  0
LINE
  5
45
330
1F
100
AcDbEntity
  8
FORMAT
100
AcDbLine
 10
0.2
 20
0.2
 30
0.0
 11
0.2
 21
8.1
 31
0.0
  0
LINE
  5
46
330
1F
100
AcDbEntity
  8
FORMAT
100
AcDbLine
 10
0.2
 20
8.1
 30
0.0
 11
10.75
 21
8.1
 31
0.0
  0
LINE
  5
47
330
1F
100
AcDbEntity
  8
FORMAT
100
AcDbLine
 10
10.75
 20
0.2
 30
0.0
 11
10.75
 21
8.1
 31
0.0
  0
LINE
  5
48
330
1F
100
AcDbEntity
  8
FORMAT
100
AcDbLine
 10
10.75
 20
0.2
 30
0.0
 11
0.2
 21
0.2
 31
0.0
  0
LINE
  5
49
330
1F
100
AcDbEntity
  8
FORMAT
100
AcDbLine
 10
5.0
 20
1.2
 30
0.0
 11
5.0
 21
0.2
 31
0.0
  0
LINE
  5
4A
330
1F
100
AcDbEntity
  8
FORMAT
100
AcDbLine
 10
7.3
 20
0.35
 30
0.0
 11
6.0
 21
0.35
 31
0.0
  0
LINE
  5
4B
330
1F
100
AcDbEntity
  8
FORMAT
100
AcDbLine
 10
5.0
 20
0.5
 30
0.0
 11
6.0
 21
0.5
 31
0.0
  0
LINE
  5
4C
330
1F
100
AcDbEntity
  8
FORMAT
100
AcDbLine
 10
5.0
 20
0.75
 30
0.0
 11
6.0
 21
0.75
 31
0.0
  0
LINE
  5
4D
330
1F
100
AcDbEntity
  8
FORMAT
100
AcDbLine
 10
2.4
 20
1.2
 30
0.0
 11
2.4
 21
0.2
 31
0.0
  0
LINE
  5
4E
330
1F
100
AcDbEntity
  8
FORMAT
100
AcDbLine
 10
0.2
 20
0.3
 30
0.0
 11
2.4
 21
0.3
 31
0.0
  0
LINE
  5
4F
330
1F
100
AcDbEntity
  8
FORMAT
100
AcDbLine
 10
4.0
 20
1.2
 30
0.0
 11
4.0
 21
0.2
 31
0.0
  0
LINE
  5
50
330
1F
100
AcDbEntity
  8
FORMAT
100
AcDbLine
 10
8.5
 20
0.45
 30
0.0
 11
7.3
 21
0.45
 31
0.0
  0
LINE
  5
51
330
1F
100
AcDbEntity
  8
FORMAT
100
AcDbLine
 10
2.4
 20
0.4
 30
0.0
 11
0.2
 21
0.4
 31
0.0
  0
LINE
  5
52
330
1F
100
AcDbEntity
  8
0
  6
Continuous
 62
     7
370
     0
100
AcDbLine
 10
7.7235077951
 20
0.2288015671
 30
0.0
 11
7.7235077951
 21
0.2314050193
 31
0.0
  0
LINE
  5
53
330
1F
100
AcDbEntity
  8
FORMAT
100
AcDbLine
 10
4.0
 20
0.3
 30
0.0
 11
5.0
 21
0.3
 31
0.0
  0
LINE
  5
54
330
1F
100
AcDbEntity
  8
FORMAT
100
AcDbLine
 10
5.0
 20
0.4
 30
0.0
 11
4.0
 21
0.4
 31
0.0
  0
LINE
  5
55
330
1F
100
AcDbEntity
  8
FORMAT
100
AcDbLine
 10
4.5
 20
0.3
 30
0.0
 11
4.5
 21
1.0
 31
0.0
  0
LINE
  5
56
330
1F
100
AcDbEntity
  8
FORMAT
100
AcDbLine
 10
5.0
 20
1.0
 30
0.0
 11
4.0
 21
1.0
 31
0.0
  0
LINE
  5
57
330
1F
100
AcDbEntity
  8
FORMAT
100
AcDbLine
 10
7.3
 20
0.2
 30
0.0
 11
7.3
 21
1.2
 31
0.0
  0
LINE
  5
58
330
1F
100
AcDbEntity
  8
FORMAT
100
AcDbLine
 10
10.25
 20
0.2
 30
0.0
 11
10.25
 21
0.5
 31
0.0
  0
LINE
  5
59
330
1F
100
AcDbEntity
  8
FORMAT
100
AcDbLine
 10
8.5
 20
0.7
 30
0.0
 11
7.3
 21
0.7
 31
0.0
  0
LINE
  5
5A
330
1F
100
AcDbEntity
  8
FORMAT
100
AcDbLine
 10
4.0
 20
0.6
 30
0.0
 11
5.0
 21
0.6
 31
0.0
  0
LINE
  5
5B
330
1F
100
AcDbEntity
  8
FORMAT
100
AcDbLine
 10
4.0
 20
0.8
 30
0.0
 11
5.0
 21
0.8
 31
0.0
  0
LINE
  5
5C
330
1F
100
AcDbEntity
  8
FORMAT
100
AcDbLine
 10
10.75
 20
0.5
 30
0.0
 11
8.5
 21
0.5
 31
0.0
  0
LINE
  5
5D
330
1F
100
AcDbEntity
  8
FORMAT
100
AcDbLine
 10
8.5
 20
0.2
 30
0.0
 11
8.5
 21
1.2
 31
0.0
  0
LINE
  5
5E
330
1F
100
AcDbEntity
  8
FORMAT
100
AcDbLine
 10
10.75
 20
1.2
 30
0.0
 11
0.2
 21
1.2
 31
0.0
  0
LINE
  5
5F
330
1F
100
AcDbEntity
  8
FORMAT
100
AcDbLine
 10
7.3
 20
0.95
 30
0.0
 11
8.5
 21
0.95
 31
0.0
  0
LINE
  5
60
330
1F
100
AcDbEntity
  8
FORMAT
100
AcDbLine
 10
8.0
 20
0.45
 30
0.0
 11
8.0
 21
1.2
 31
0.0
  0
LINE
  5
61
330
1F
100
AcDbEntity
  8
FORMAT
100
AcDbLine
 10
6.0
 20
0.2
 30
0.0
 11
6.0
 21
1.2
 31
0.0
  0
LINE
  5
62
330
1F
100
AcDbEntity
  8
FORMAT
100
AcDbLine
 10
2.4
 20
1.0514344759
 30
0.0
 11
4.0
 21
1.0514344759
 31
0.0
  0
LINE
  5
63
330
1F
100
AcDbEntity
  8
FORMAT
100
AcDbLine
 10
0.5
 20
0.3
 30
0.0
 11
0.5
 21
1.2
 31
0.0
  0
LINE
  5
64
330
1F
100
AcDbEntity
  8
FORMAT
100
AcDbLine
 10
1.35
 20
0.3
 30
0.0
 11
1.35
 21
1.2
 31
0.0
  0
LINE
  5
65
330
1F
100
AcDbEntity
  8
FORMAT
100
AcDbLine
 10
2.05
 20
0.3
 30
0.0
 11
2.05
 21
1.2
 31
0.0
  0
LINE
  5
66
330
1F
100
AcDbEntity
  8
FORMAT
100
AcDbLine
 10
1.7
 20
0.3
 30
0.0
 11
1.7
 21
1.2
 31
0.0
  0
LINE
  5
67
330
1F
100
AcDbEntity
  8
FORMAT
100
AcDbLine
 10
2.4
 20
0.6
 30
0.0
 11
0.2
 21
0.6
 31
0.0
  0
LINE
  5
68
330
1F
100
AcDbEntity
  8
FORMAT
100
AcDbLine
 10
2.4
 20
0.8
 30
0.0
 11
0.2
 21
0.8
 31
0.0
  0
LINE
  5
69
330
1F
100
AcDbEntity
  8
FORMAT
100
AcDbLine
 10
2.4
 20
1.0
 30
0.0
 11
0.2
 21
1.0
 31
0.0
  0
MTEXT
  5
6B
330
1F
100
AcDbEntity
  8
FORMAT
100
AcDbMText
 10
0.3867814742
 20
7.9095692164
 30
0.0
 40
0.125
 41
0.0
 71
     1
 72
     1
  1
NOTES:
  7
SLDTEXTSTYLE0
 73
     1
 44
1.0
  0
MTEXT
  5
6C
330
1F
100
AcDbEntity
  8
FORMAT
100
AcDbMText
 10
0.3867814742
 20
7.6566645865
 30
0.0
 40
0.125
 41
0.0
 71
     1
 72
     1
  1
1. THIS MODEL USES STANDARD 2CRA PLENUM (FBP/FBPI-10)
  7
SLDTEXTSTYLE0
 73
     1
 44
1.0
  0
MTEXT
  5
6D
330
1F
100
AcDbEntity
  8
0
  6
Continuous
 62
     7
370
     0
100
AcDbMText
 10
8.5185432937
 20
0.4772602266
 30
0.0
 40
0.0625
 41
0.0
 71
     1
 72
     1
  1
DWG.  NO.
  7
SLDTEXTSTYLE0
 73
     1
 44
1.0
  0
MTEXT
  5
6F
330
1F
100
AcDbEntity
  8
0
  6
Continuous
 62
     7
370
     0
100
AcDbMText
 10
5.0225267194
 20
1.1793722874
 30
0.0
 40
0.0520833333
 41
0.0
 71
     1
 72
     1
  1
MATERIAL
  7
SLDTEXTSTYLE1
 73
     1
 44
1.0
  0
MTEXT
  5
70
330
1F
100
AcDbEntity
  8
0
  6
Continuous
 62
     7
370
     0
100
AcDbMText
 10
5.021512677
 20
0.4952121851
 30
0.0
 40
0.0520833333
 41
0.0
 71
     1
 72
     1
  1
FINISH
  7
SLDTEXTSTYLE1
 73
     1
 44
1.0
  0
MTEXT
  5
71
330
1F
100
AcDbEntity
  8
0
  6
Continuous
 62
     7
370
     0
100
AcDbMText
 10
6.0541583786
 20
0.2846047482
 30
0.0
 40
0.0615763547
 41
0.0
 71
     1
 72
     1
  1
DO  NOT  SCALE  DRAWING
  7
SLDTEXTSTYLE0
 73
     1
 44
1.0
  0
MTEXT
  5
72
330
1F
100
AcDbEntity
  8
0
  6
Continuous
 62
     7
370
     0
100
AcDbMText
 10
4.2252746038
 20
0.2712151276
 30
0.0
 40
0.0625
 41
0.0
 71
     1
 72
     1
  1
APPLICATION
  7
SLDTEXTSTYLE1
 73
     1
 44
1.0
  0
MTEXT
  5
73
330
1F
100
AcDbEntity
  8
0
  6
Continuous
 62
     7
370
     0
100
AcDbMText
 10
4.5915377541
 20
0.376115519
 30
0.0
 40
0.0625
 41
0.0
 71
     1
 72
     1
  1
USED ON
  7
SLDTEXTSTYLE1
 73
     1
 44
1.0
  0
MTEXT
  5
74
330
1F
100
AcDbEntity
  8
0
  6
Continuous
 62
     7
370
     0
100
AcDbMText
 10
4.0413538477
 20
0.3750448969
 30
0.0
 40
0.0625
 41
0.0
 71
     1
 72
     1
  1
NEXT ASSY
  7
SLDTEXTSTYLE1
 73
     1
 44
1.0
  0
INSERT
  5
8A
330
1F
100
AcDbEntity
  8
0
  6
Continuous
 62
     7
370
     0
100
AcDbBlockReference
  2
SW_NOTE_0
 10
6.0424995147
 20
1.0473105363
 30
0.0
  0
MTEXT
  5
8B
330
1F
100
AcDbEntity
  8
0
  6
Continuous
 62
     7
370
     0
100
AcDbMText
 10
8.0207463299
 20
1.183045403
 30
0.0
 40
0.0625
 41
0.0
 71
     1
 72
     1
  1
DATE
  7
SLDTEXTSTYLE0
 73
     1
 44
1.0
  0
MTEXT
  5
8C
330
1F
100
AcDbEntity
  8
0
  6
Continuous
 62
     7
370
     0
100
AcDbMText
 10
7.3189467108
 20
1.1726479079
 30
0.0
 40
0.0625
 41
0.0
 71
     1
 72
     1
  1
DRWN
  7
SLDTEXTSTYLE0
 73
     1
 44
1.0
  0
MTEXT
  5
8D
330
1F
100
AcDbEntity
  8
0
  6
Continuous
 62
     7
370
     0
100
AcDbMText
 10
7.3174801481
 20
0.9412820738
 30
0.0
 40
0.0625
 41
0.0
 71
     1
 72
     1
  1
CHKD
  7
SLDTEXTSTYLE0
 73
     1
 44
1.0
  0
MTEXT
  5
8E
330
1F
100
AcDbEntity
  8
0
  6
Continuous
 62
     7
370
     0
100
AcDbMText
 10
7.3235935025
 20
0.6919999949
 30
0.0
 40
0.0625
 41
0.0
 71
     1
 72
     1
  1
APVD
  7
SLDTEXTSTYLE0
 73
     1
 44
1.0
  0
MTEXT
  5
90
330
1F
100
AcDbEntity
  8
0
  6
Continuous
 62
     7
370
     0
100
AcDbMText
 10
10.5097707868
 20
0.4014420673
 30
0.0
 40
0.125
 41
0.0
 71
     2
 72
     1
  1
1 OF 1
  7
SLDTEXTSTYLE2
 73
     1
 44
1.0
  0
MTEXT
  5
91
330
1F
100
AcDbEntity
  8
0
  6
Continuous
 62
     7
370
     0
100
AcDbMText
 10
1.1151117881
 20
0.2667165898
 30
0.0
 40
0.0520833333
 41
0.0
 71
     1
 72
     1
  1
REVISIONS
  7
SLDTEXTSTYLE1
 73
     1
 44
1.0
  0
MTEXT
  5
92
330
1F
100
AcDbEntity
  8
0
  6
Continuous
 62
     7
370
     0
100
AcDbMText
 10
0.7345819524
 20
0.3715873701
 30
0.0
 40
0.0520833333
 41
0.0
 71
     1
 72
     1
  1
ECO NUMBER
  7
SLDTEXTSTYLE1
 73
     1
 44
1.0
  0
MTEXT
  5
93
330
1F
100
AcDbEntity
  8
0
  6
Continuous
 62
     7
370
     0
100
AcDbMText
 10
0.2857752488
 20
0.3739171773
 30
0.0
 40
0.0520833333
 41
0.0
 71
     1
 72
     1
  1
REV
  7
SLDTEXTSTYLE1
 73
     1
 44
1.0
  0
MTEXT
  5
94
330
1F
100
AcDbEntity
  8
0
  6
Continuous
 62
     7
370
     0
100
AcDbMText
 10
1.8038400866
 20
0.3790502739
 30
0.0
 40
0.0520833333
 41
0.0
 71
     1
 72
     1
  1
DATE
  7
SLDTEXTSTYLE1
 73
     1
 44
1.0
  0
MTEXT
  5
95
330
1F
100
AcDbEntity
  8
0
  6
Continuous
 62
     7
370
     0
100
AcDbMText
 10
2.1259626297
 20
0.3774249859
 30
0.0
 40
0.0520833333
 41
0.0
 71
     1
 72
     1
  1
APPVD
  7
SLDTEXTSTYLE1
 73
     1
 44
1.0
  0
MTEXT
  5
96
330
1F
100
AcDbEntity
  8
0
  6
Continuous
 62
     7
370
     0
100
AcDbMText
 10
2.5181212883
 20
0.978994361
 30
0.0
 40
0.0538793103
 41
0.0
 71
     1
 72
     1
  1
PROPRIETARY AND CONFIDENTIAL
  7
SLDTEXTSTYLE0
 73
     1
 44
1.0
  0
MTEXT
  5
97
330
1F
100
AcDbEntity
  8
0
  6
Continuous
 62
     7
370
     0
100
AcDbMText
 10
10.2684823928
 20
0.4648443258
 30
0.0
 40
0.0625
 41
0.0
 71
     1
 72
     1
  1
SHEET
  7
SLDTEXTSTYLE0
 73
     1
 44
1.0
  0
MTEXT
  5
98
330
1F
100
AcDbEntity
  8
0
  6
Continuous
 62
     7
370
     0
100
AcDbMText
 10
8.5498868954
 20
1.1746406014
 30
0.0
 40
0.0625
 41
0.0
 71
     1
 72
     1
  1
TITLE
  7
SLDTEXTSTYLE0
 73
     1
 44
1.0
  0
MTEXT
  5
99
330
1F
100
AcDbEntity
  8
0
  6
Continuous
 62
     7
370
     0
100
AcDbMText
 10
5.0141221843
 20
0.7369506124
 30
0.0
 40
0.0520833333
 41
0.0
 71
     1
 72
     1
  1
BLANKSIZE
  7
SLDTEXTSTYLE1
 73
     1
 44
1.0
  0
MTEXT
  5
9B
330
1F
100
AcDbEntity
  8
0
  6
Continuous
 62
     7
370
     0
100
AcDbMText
 10
8.9609092195
 20
0.3947262537
 30
0.0
 40
0.1458333333
 41
0.0
 71
     1
 72
     1
  1
XY-17051
  7
SLDTEXTSTYLE3
 73
     1
 44
1.0
  0
INSERT
  5
A2
330
1F
100
AcDbEntity
  8
0
  6
Continuous
 62
     7
370
     0
100
AcDbBlockReference
  2
SW_NOTE_1
 10
8.6355918983
 20
0.8865099108
 30
0.0
  0
MTEXT
  5
A3
330
1F
100
AcDbEntity
  8
0
  6
Continuous
 62
     7
370
     0
100
AcDbMText
 10
0.2980411684
 20
0.5464784472
 30
0.0
 40
0.09375
 41
0.0
 71
     1
 72
     1
  1
B
  7
SLDTEXTSTYLE0
 73
     1
 44
1.0
  0
MTEXT
  5
A4
330
1F
100
AcDbEntity
  8
0
  6
Continuous
 62
     7
370
     0
100
AcDbMText
 10
0.6502573542
 20
0.5445767239
 30
0.0
 40
0.09375
 41
0.0
 71
     1
 72
     1
  1
T07970
  7
SLDTEXTSTYLE0
 73
     1
 44
1.0
  0
MTEXT
  5
A5
330
1F
100
AcDbEntity
  8
0
  6
Continuous
 62
     7
370
     0
100
AcDbMText
 10
1.7483900961
 20
0.5461143881
 30
0.0
 40
0.09375
 41
0.0
 71
     1
 72
     1
  1
04/10
  7
SLDTEXTSTYLE0
 73
     1
 44
1.0
  0
MTEXT
  5
A6
330
1F
100
AcDbEntity
  8
0
  6
Continuous
 62
     7
370
     0
100
AcDbMText
 10
7.9586096076
 20
0.5989825807
 30
0.0
 40
0.09375
 41
0.0
 71
     3
 72
     1
  1
MJC
  7
SLDTEXTSTYLE0
 73
     1
 44
1.0
  0
MTEXT
  5
A7
330
1F
100
AcDbEntity
  8
0
  6
Continuous
 62
     7
370
     0
100
AcDbMText
 10
8.4713146172
 20
0.5947649014
 30
0.0
 40
0.09375
 41
0.0
 71
     3
 72
     1
  1
04/2010
  7
SLDTEXTSTYLE0
 73
     1
 44
1.0
  0
MTEXT
  5
A8
330
1F
100
AcDbEntity
  8
0
  6
Continuous
 62
     7
370
     0
100
AcDbMText
 10
1.4894122276
 20
0.3774787669
 30
0.0
 40
0.0520833333
 41
0.0
 71
     1
 72
     1
  1
BY
  7
SLDTEXTSTYLE1
 73
     1
 44
1.0
  0
MTEXT
  5
A9
330
1F
100
AcDbEntity
  8
0
  6
Continuous
 62
     7
370
     0
100
AcDbMText
 10
2.098505351
 20
0.5481528926
 30
0.0
 40
0.09375
 41
0.0
 71
     1
 72
     1
  1
MJC
  7
SLDTEXTSTYLE0
 73
     1
 44
1.0
  0
INSERT
  5
AF
330
1F
100
AcDbEntity
  8
0
  6
Continuous
 62
     7
370
     0
100
AcDbBlockReference
  2
SW_NOTE_2
 10
7.4204874427
 20
0.3244912111
 30
0.0
  0
MTEXT
  5
B0
330
1F
100
AcDbEntity
  8
0
  6
Continuous
 62
     7
370
     0
100
AcDbMText
 10
0.2241733181
 20
0.1584456153
 30
0.0
 40
0.0833333333
 41
0.0
 71
     1
 72
     1
  1
PRINTED: 4/23/2012
  7
SLDTEXTSTYLE0
 73
     1
 44
1.0
  0
MTEXT
  5
B1
330
1F
100
AcDbEntity
  8
0
  6
Continuous
 62
     7
370
     0
100
AcDbMText
 10
4.0089602443
 20
1.1961393005
 30
0.0
 40
0.0625
 41
0.0
 71
     1
 72
     1
  1
F.O. NO.
  7
SLDTEXTSTYLE0
 73
     1
 44
1.0
  0
MTEXT
  5
B2
330
1F
100
AcDbEntity
  8
0
  6
Continuous
 62
     7
370
     0
100
AcDbMText
 10
1.6867331587
 20
8.2439283706
 30
0.0
 40
0.125
 41
0.0
 71
     1
 72
     1
  1
XY-17051
  7
SLDTEXTSTYLE3
 73
     1
 44
1.0
  0
MTEXT
  5
B3
330
1F
100
AcDbEntity
  8
0
  6
Continuous
 62
     7
370
     0
100
AcDbMText
 10
3.7848933167
 20
8.1944513875
 30
0.0
 40
0.0625
 41
0.0
 71
     1
 72
     1
  1
SHEET
  7
SLDTEXTSTYLE0
 73
     1
 44
1.0
  0
MTEXT
  5
B4
330
1F
100
AcDbEntity
  8
0
  6
Continuous
 62
     7
370
     0
100
AcDbMText
 10
4.0350608205
 20
8.2561839506
 30
0.0
 40
0.125
 41
0.0
 71
     1
 72
     1
  1
1 OF 1
  7
SLDTEXTSTYLE2
 73
     1
 44
1.0
  0
MTEXT
  5
B5
330
1F
100
AcDbEntity
  8
0
  6
Continuous
 62
     7
370
     0
100
AcDbMText
 10
1.3245622947
 20
8.192907482
 30
0.0
 40
0.0625
 41
0.0
 71
     1
 72
     1
  1
DWG.  NO.
  7
SLDTEXTSTYLE0
 73
     1
 44
1.0
  0
INSERT
  5
C0
330
1F
100
AcDbEntity
  8
0
  6
Continuous
 62
     7
370
     0
100
AcDbBlockReference
  2
SW_NOTE_3
 10
2.4491712094
 20
0.773634246
 30
0.0
  0
MTEXT
  5
C1
330
1F
100
AcDbEntity
  8
FORMAT
100
AcDbMText
 10
2.4990366235
 20
1.1559406913
 30
0.0
 40
0.0833333333
 41
0.0
 71
     1
 72
     1
  1
Air System Components
  7
SLDTEXTSTYLE3
 73
     1
 44
1.0
  0
LINE
  5
C2
330
1F
100
AcDbEntity
  8
0
  6
Continuous
 62
     7
370
    30
100
AcDbLine
 10
7.8751361354
 20
3.4921641569
 30
0.0
 11
7.8751361354
 21
3.4206960758
 31
0.0
  0
LINE
  5
C3
330
1F
100
AcDbEntity
  8
0
  6
Continuous
 62
     7
370
    30
100
AcDbLine
 10
7.8707426395
 20
3.4100895583
 30
0.0
 11
7.8169594208
 21
3.3563063396
 31
0.0
  0
LINE
  5
C4
330
1F
100
AcDbEntity
  8
0
  6
Continuous
 62
     7
370
    30
100
AcDbLine
 10
7.8311015908
 20
3.3221642007
 30
0.0
 11
8.0501360472
 21
3.3221642007
 31
0.0
  0
LINE
  5
C5
330
1F
100
AcDbEntity
  8
0
  6
Continuous
 62
     7
370
    30
100
AcDbLine
 10
8.0651362072
 20
3.3371642141
 30
0.0
 11
8.0651362072
 21
3.3696641453
 31
0.0
  0
LINE
  5
C6
330
1F
100
AcDbEntity
  8
0
  6
Continuous
 62
     7
370
    30
100
AcDbLine
 10
8.0801362206
 20
3.3846641587
 30
0.0
 11
8.1121361709
 21
3.3846641587
 31
0.0
  0
LINE
  5
C7
330
1F
100
AcDbEntity
  8
0
  6
Continuous
 62
     7
370
    30
100
AcDbLine
 10
8.1271361843
 20
3.3696641453
 30
0.0
 11
8.1271361843
 21
3.3371642141
 31
0.0
  0
LINE
  5
C8
330
1F
100
AcDbEntity
  8
0
  6
Continuous
 62
     7
370
    30
100
AcDbLine
 10
8.1421361977
 20
3.3221642007
 30
0.0
 11
8.9231359755
 21
3.3221642007
 31
0.0
  0
ARC
  5
C9
330
1F
100
AcDbEntity
  8
0
  6
Continuous
 62
     7
370
    30
100
AcDbCircle
 10
8.9231360778
 20
3.3071641643
 30
0.0
 40
0.0150000000000023
100
AcDbArc
 50
0.0
 51
90.0
  0
LINE
  5
CA
330
1F
100
AcDbEntity
  8
0
  6
Continuous
 62
     7
370
    30
100
AcDbLine
 10
8.9381359889
 20
3.3071641873
 30
0.0
 11
8.9381359889
 21
3.2969624652
 31
0.0
  0
ARC
  5
CB
330
1F
100
AcDbEntity
  8
0
  6
Continuous
 62
     7
370
    30
100
AcDbCircle
 10
8.9231360778
 20
3.296962462
 30
0.0
 40
0.0150000000000023
100
AcDbArc
 50
270.77564932
 51
0.0
  0
LINE
  5
CC
330
1F
100
AcDbEntity
  8
0
  6
Continuous
 62
     7
370
    30
100
AcDbLine
 10
8.9233392532
 20
3.2819637718
 30
0.0
 11
7.3431360811
 21
3.2605703389
 31
0.0
  0
ARC
  5
CD
330
1F
100
AcDbEntity
  8
0
  6
Continuous
 62
     7
370
    30
100
AcDbCircle
 10
7.3181360778
 20
3.2541641643
 30
0.0
 40
0.0249999999999999
100
AcDbArc
 50
270.0
 51
0.0
  0
ARC
  5
CE
330
1F
100
AcDbEntity
  8
0
  6
Continuous
 62
     7
370
    30
100
AcDbCircle
 10
7.3181360778
 20
3.2341641643
 30
0.0
 40
0.0050000000000008
100
AcDbArc
 50
180.0
 51
270.0
  0
LINE
  5
CF
330
1F
100
AcDbEntity
  8
0
  6
Continuous
 62
     7
370
    30
100
AcDbLine
 10
7.3131360544
 20
3.2341641906
 30
0.0
 11
7.3131360544
 21
3.3071641873
 31
0.0
  0
LINE
  5
D0
330
1F
100
AcDbEntity
  8
0
  6
Continuous
 62
     7
370
    30
100
AcDbLine
 10
7.3281360678
 20
3.3221642007
 30
0.0
 11
7.6889228066
 21
3.3221642007
 31
0.0
  0
LINE
  5
D1
330
1F
100
AcDbEntity
  8
0
  6
Continuous
 62
     7
370
    30
100
AcDbLine
 10
7.6995294707
 20
3.32655755
 30
0.0
 11
7.8087426624
 21
3.4357707417
 31
0.0
  0
LINE
  5
D2
330
1F
100
AcDbEntity
  8
0
  6
Continuous
 62
     7
370
    30
100
AcDbLine
 10
7.8131360117
 20
3.4463774058
 30
0.0
 11
7.8131360117
 21
3.8666641439
 31
0.0
  0
LINE
  5
D3
330
1F
100
AcDbEntity
  8
0
  6
Continuous
 62
     7
370
    30
100
AcDbLine
 10
7.8281360251
 20
3.8816641573
 30
0.0
 11
7.8601361221
 21
3.8816641573
 31
0.0
  0
LINE
  5
D4
330
1F
100
AcDbEntity
  8
0
  6
Continuous
 62
     7
370
    30
100
AcDbLine
 10
7.8751361354
 20
3.8666641439
 30
0.0
 11
7.8751361354
 21
3.5841641607
 31
0.0
  0
LINE
  5
D5
330
1F
100
AcDbEntity
  8
0
  6
Continuous
 62
     7
370
    30
100
AcDbLine
 10
7.8901361488
 20
3.5691641474
 30
0.0
 11
7.985136038
 21
3.5691641474
 31
0.0
  0
LINE
  5
D6
330
1F
100
AcDbEntity
  8
0
  6
Continuous
 62
     7
370
    30
100
AcDbLine
 10
8.0001360514
 20
3.5841641607
 30
0.0
 11
8.0001360514
 21
4.8661641647
 31
0.0
  0
LINE
  5
D7
330
1F
100
AcDbEntity
  8
0
  6
Continuous
 62
     7
370
    30
100
AcDbLine
 10
7.985136038
 20
4.8811641643
 30
0.0
 11
7.8901361488
 21
4.8811641643
 31
0.0
  0
LINE
  5
D8
330
1F
100
AcDbEntity
  8
0
  6
Continuous
 62
     7
370
    30
100
AcDbLine
 10
7.8751361354
 20
4.8661641647
 30
0.0
 11
7.8751361354
 21
4.7711641609
 31
0.0
  0
ARC
  5
D9
330
1F
100
AcDbEntity
  8
0
  6
Continuous
 62
     7
370
    30
100
AcDbCircle
 10
8.1371360778
 20
3.5571641643
 30
0.0
 40
0.0500000000000007
100
AcDbArc
 50
270.0
 51
0.0
  0
ARC
  5
DA
330
1F
100
AcDbEntity
  8
0
  6
Continuous
 62
     7
370
    30
100
AcDbCircle
 10
7.8311015899
 20
3.3421641643
 30
0.0
 40
0.0200000000000007
100
AcDbArc
 50
135.0
 51
270.0
  0
ARC
  5
DB
330
1F
100
AcDbEntity
  8
0
  6
Continuous
 62
     7
370
    30
100
AcDbCircle
 10
8.1401360778
 20
4.8281641643
 30
0.0
 40
0.0150000000000006
100
AcDbArc
 50
180.0
 51
270.0
  0
ARC
  5
DC
330
1F
100
AcDbEntity
  8
0
  6
Continuous
 62
     7
370
    30
100
AcDbCircle
 10
7.8281360778
 20
4.7711641643
 30
0.0
 40
0.0149999999999997
100
AcDbArc
 50
180.0
 51
270.0
  0
ARC
  5
DD
330
1F
100
AcDbEntity
  8
0
  6
Continuous
 62
     7
370
    30
100
AcDbCircle
 10
7.8281360778
 20
4.9281641643
 30
0.0
 40
0.0150000000000006
100
AcDbArc
 50
90.0
 51
180.0
  0
ARC
  5
DE
330
1F
100
AcDbEntity
  8
0
  6
Continuous
 62
     7
370
    30
100
AcDbCircle
 10
8.1721360778
 20
4.8281641643
 30
0.0
 40
0.0150000000000006
100
AcDbArc
 50
270.0
 51
0.0
  0
ARC
  5
DF
330
1F
100
AcDbEntity
  8
0
  6
Continuous
 62
     7
370
    30
100
AcDbCircle
 10
8.1721360778
 20
4.9281641643
 30
0.0
 40
0.0150000000000006
100
AcDbArc
 50
0.0
 51
90.0
  0
ARC
  5
E0
330
1F
100
AcDbEntity
  8
0
  6
Continuous
 62
     7
370
    30
100
AcDbCircle
 10
8.1101360778
 20
4.8661641643
 30
0.0
 40
0.0150000000000006
100
AcDbArc
 50
0.0
 51
90.0
  0
ARC
  5
E1
330
1F
100
AcDbEntity
  8
0
  6
Continuous
 62
     7
370
    30
100
AcDbCircle
 10
7.9851360778
 20
4.8661641643
 30
0.0
 40
0.0149999999999997
100
AcDbArc
 50
0.0
 51
90.0
  0
ARC
  5
E2
330
1F
100
AcDbEntity
  8
0
  6
Continuous
 62
     7
370
    30
100
AcDbCircle
 10
8.0771360778
 20
4.8661641643
 30
0.0
 40
0.0150000000000006
100
AcDbArc
 50
90.0
 51
180.0
  0
ARC
  5
E3
330
1F
100
AcDbEntity
  8
0
  6
Continuous
 62
     7
370
    30
100
AcDbCircle
 10
7.8901360778
 20
4.8661641643
 30
0.0
 40
0.0150000000000006
100
AcDbArc
 50
90.0
 51
180.0
  0
ARC
  5
E4
330
1F
100
AcDbEntity
  8
0
  6
Continuous
 62
     7
370
    30
100
AcDbCircle
 10
8.1721360778
 20
4.3091641643
 30
0.0
 40
0.0149999999999997
100
AcDbArc
 50
0.0
 51
90.0
  0
ARC
  5
E5
330
1F
100
AcDbEntity
  8
0
  6
Continuous
 62
     7
370
    30
100
AcDbCircle
 10
8.1401360778
 20
4.3091641643
 30
0.0
 40
0.0150000000000006
100
AcDbArc
 50
90.0
 51
180.0
  0
ARC
  5
E6
330
1F
100
AcDbEntity
  8
0
  6
Continuous
 62
     7
370
    30
100
AcDbCircle
 10
8.1101360778
 20
4.2711641643
 30
0.0
 40
0.0150000000000006
100
AcDbArc
 50
270.0
 51
0.0
  0
ARC
  5
E7
330
1F
100
AcDbEntity
  8
0
  6
Continuous
 62
     7
370
    30
100
AcDbCircle
 10
8.0771360778
 20
4.1791641643
 30
0.0
 40
0.0150000000000006
100
AcDbArc
 50
90.0
 51
180.0
  0
ARC
  5
E8
330
1F
100
AcDbEntity
  8
0
  6
Continuous
 62
     7
370
    30
100
AcDbCircle
 10
7.8281360778
 20
3.8666641643
 30
0.0
 40
0.0149999999999997
100
AcDbArc
 50
90.0
 51
180.0
  0
ARC
  5
E9
330
1F
100
AcDbEntity
  8
0
  6
Continuous
 62
     7
370
    30
100
AcDbCircle
 10
7.8601360778
 20
3.8666641643
 30
0.0
 40
0.0150000000000015
100
AcDbArc
 50
0.0
 51
90.0
  0
ARC
  5
EA
330
1F
100
AcDbEntity
  8
0
  6
Continuous
 62
     7
370
    30
100
AcDbCircle
 10
7.8901360778
 20
3.5841641643
 30
0.0
 40
0.0149999999999997
100
AcDbArc
 50
180.0
 51
270.0
  0
ARC
  5
EB
330
1F
100
AcDbEntity
  8
0
  6
Continuous
 62
     7
370
    30
100
AcDbCircle
 10
7.9851360778
 20
3.5841641643
 30
0.0
 40
0.0149999999999997
100
AcDbArc
 50
270.0
 51
0.0
  0
LINE
  5
EC
330
1F
100
AcDbEntity
  8
0
  6
Continuous
 62
     7
370
    30
100
AcDbLine
 10
7.3431360811
 20
3.2605703389
 30
0.0
 11
7.3431360811
 21
3.2541641596
 31
0.0
  0
ARC
  5
ED
330
1F
100
AcDbEntity
  8
0
  6
Continuous
 62
     7
370
    30
100
AcDbCircle
 10
7.7981360778
 20
3.4463773678
 30
0.0
 40
0.0149999999999999
100
AcDbArc
 50
315.0
 51
0.0
  0
ARC
  5
EE
330
1F
100
AcDbEntity
  8
0
  6
Continuous
 62
     7
370
    30
100
AcDbCircle
 10
7.3281360778
 20
3.3071641643
 30
0.0
 40
0.0150000000000001
100
AcDbArc
 50
90.0
 51
180.0
  0
ARC
  5
EF
330
1F
100
AcDbEntity
  8
0
  6
Continuous
 62
     7
370
    30
100
AcDbCircle
 10
8.0771360778
 20
4.2711641643
 30
0.0
 40
0.0150000000000006
100
AcDbArc
 50
180.0
 51
270.0
  0
ARC
  5
F0
330
1F
100
AcDbEntity
  8
0
  6
Continuous
 62
     7
370
    30
100
AcDbCircle
 10
7.8901360778
 20
3.4921641643
 30
0.0
 40
0.0150000000000001
100
AcDbArc
 50
90.0
 51
180.0
  0
ARC
  5
F1
330
1F
100
AcDbEntity
  8
0
  6
Continuous
 62
     7
370
    30
100
AcDbCircle
 10
7.8601360778
 20
3.4206961269
 30
0.0
 40
0.0150000000000015
100
AcDbArc
 50
315.0
 51
0.0
  0
ARC
  5
F2
330
1F
100
AcDbEntity
  8
0
  6
Continuous
 62
     7
370
    30
100
AcDbCircle
 10
7.8601360778
 20
4.7711641643
 30
0.0
 40
0.0149999999999997
100
AcDbArc
 50
270.0
 51
0.0
  0
ARC
  5
F3
330
1F
100
AcDbEntity
  8
0
  6
Continuous
 62
     7
370
    30
100
AcDbCircle
 10
8.1721360778
 20
4.1411641643
 30
0.0
 40
0.0150000000000006
100
AcDbArc
 50
270.0
 51
0.0
  0
ARC
  5
F4
330
1F
100
AcDbEntity
  8
0
  6
Continuous
 62
     7
370
    30
100
AcDbCircle
 10
8.1101360778
 20
4.1791641643
 30
0.0
 40
0.0149999999999997
100
AcDbArc
 50
0.0
 51
90.0
  0
ARC
  5
F5
330
1F
100
AcDbEntity
  8
0
  6
Continuous
 62
     7
370
    30
100
AcDbCircle
 10
8.1401360778
 20
4.1411641643
 30
0.0
 40
0.0150000000000006
100
AcDbArc
 50
180.0
 51
270.0
  0
ARC
  5
F6
330
1F
100
AcDbEntity
  8
0
  6
Continuous
 62
     7
370
    30
100
AcDbCircle
 10
8.0771360778
 20
3.5841641643
 30
0.0
 40
0.0150000000000006
100
AcDbArc
 50
180.0
 51
270.0
  0
ARC
  5
F7
330
1F
100
AcDbEntity
  8
0
  6
Continuous
 62
     7
370
    30
100
AcDbCircle
 10
8.1721360778
 20
3.6221641643
 30
0.0
 40
0.0150000000000006
100
AcDbArc
 50
0.0
 51
90.0
  0
ARC
  5
F8
330
1F
100
AcDbEntity
  8
0
  6
Continuous
 62
     7
370
    30
100
AcDbCircle
 10
8.1401360778
 20
3.6221641643
 30
0.0
 40
0.0150000000000001
100
AcDbArc
 50
90.0
 51
180.0
  0
ARC
  5
F9
330
1F
100
AcDbEntity
  8
0
  6
Continuous
 62
     7
370
    30
100
AcDbCircle
 10
8.1101360778
 20
3.5841641643
 30
0.0
 40
0.0150000000000006
100
AcDbArc
 50
270.0
 51
0.0
  0
ARC
  5
FA
330
1F
100
AcDbEntity
  8
0
  6
Continuous
 62
     7
370
    30
100
AcDbCircle
 10
8.0501360778
 20
3.3371641643
 30
0.0
 40
0.0150000000000006
100
AcDbArc
 50
270.0
 51
0.0
  0
ARC
  5
FB
330
1F
100
AcDbEntity
  8
0
  6
Continuous
 62
     7
370
    30
100
AcDbCircle
 10
8.0801360778
 20
3.3696641643
 30
0.0
 40
0.0150000000000006
100
AcDbArc
 50
90.0
 51
180.0
  0
ARC
  5
FC
330
1F
100
AcDbEntity
  8
0
  6
Continuous
 62
     7
370
    30
100
AcDbCircle
 10
8.1121360778
 20
3.3696641643
 30
0.0
 40
0.0150000000000006
100
AcDbArc
 50
0.0
 51
90.0
  0
ARC
  5
FD
330
1F
100
AcDbEntity
  8
0
  6
Continuous
 62
     7
370
    30
100
AcDbCircle
 10
8.1421360778
 20
3.3371641643
 30
0.0
 40
0.0150000000000006
100
AcDbArc
 50
180.0
 51
270.0
  0
LINE
  5
FE
330
1F
100
AcDbEntity
  8
0
  6
Continuous
 62
     7
370
    30
100
AcDbLine
 10
8.1251359674
 20
4.1411641396
 30
0.0
 11
8.1251359674
 21
4.1791641539
 31
0.0
  0
LINE
  5
FF
330
1F
100
AcDbEntity
  8
0
  6
Continuous
 62
     7
370
    30
100
AcDbLine
 10
8.1721359311
 20
4.1261641995
 30
0.0
 11
8.1401359808
 21
4.1261641995
 31
0.0
  0
LINE
  5
100
330
1F
100
AcDbEntity
  8
0
  6
Continuous
 62
     7
370
    30
100
AcDbLine
 10
8.1871359445
 20
4.3091641721
 30
0.0
 11
8.1871359445
 21
4.1411641396
 31
0.0
  0
LINE
  5
101
330
1F
100
AcDbEntity
  8
0
  6
Continuous
 62
     7
370
    30
100
AcDbLine
 10
8.1401359808
 20
4.3241641489
 30
0.0
 11
8.1721359311
 21
4.3241641489
 31
0.0
  0
LINE
  5
102
330
1F
100
AcDbEntity
  8
0
  6
Continuous
 62
     7
370
    30
100
AcDbLine
 10
8.1251359674
 20
4.2711641578
 30
0.0
 11
8.1251359674
 21
4.3091641721
 31
0.0
  0
LINE
  5
103
330
1F
100
AcDbEntity
  8
0
  6
Continuous
 62
     7
370
    30
100
AcDbLine
 10
8.0771360419
 20
4.2561641444
 30
0.0
 11
8.110135954
 21
4.2561641444
 31
0.0
  0
LINE
  5
104
330
1F
100
AcDbEntity
  8
0
  6
Continuous
 62
     7
370
    30
100
AcDbLine
 10
8.0621360285
 20
4.8661641647
 30
0.0
 11
8.0621360285
 21
4.2711641578
 31
0.0
  0
LINE
  5
105
330
1F
100
AcDbEntity
  8
0
  6
Continuous
 62
     7
370
    30
100
AcDbLine
 10
8.110135954
 20
4.8811641643
 30
0.0
 11
8.0771360419
 21
4.8811641643
 31
0.0
  0
LINE
  5
106
330
1F
100
AcDbEntity
  8
0
  6
Continuous
 62
     7
370
    30
100
AcDbLine
 10
8.1251359674
 20
4.8281641641
 30
0.0
 11
8.1251359674
 21
4.8661641647
 31
0.0
  0
LINE
  5
107
330
1F
100
AcDbEntity
  8
0
  6
Continuous
 62
     7
370
    30
100
AcDbLine
 10
8.1721359311
 20
4.8131641645
 30
0.0
 11
8.1401359808
 21
4.8131641645
 31
0.0
  0
LINE
  5
108
330
1F
100
AcDbEntity
  8
0
  6
Continuous
 62
     7
370
    30
100
AcDbLine
 10
8.1871359445
 20
4.9281641647
 30
0.0
 11
8.1871359445
 21
4.8281641641
 31
0.0
  0
LINE
  5
109
330
1F
100
AcDbEntity
  8
0
  6
Continuous
 62
     7
370
    30
100
AcDbLine
 10
7.8281360251
 20
4.9431641644
 30
0.0
 11
8.1721359311
 21
4.9431641644
 31
0.0
  0
LINE
  5
10A
330
1F
100
AcDbEntity
  8
0
  6
Continuous
 62
     7
370
    30
100
AcDbLine
 10
7.8131360117
 20
4.7711641609
 30
0.0
 11
7.8131360117
 21
4.9281641647
 31
0.0
  0
LINE
  5
10B
330
1F
100
AcDbEntity
  8
0
  6
Continuous
 62
     7
370
    30
100
AcDbLine
 10
7.8601361221
 20
4.7561641659
 30
0.0
 11
7.8281360251
 21
4.7561641659
 31
0.0
  0
ARC
  5
10C
330
1F
100
AcDbEntity
  8
0
  6
Continuous
 62
     7
370
    30
100
AcDbCircle
 10
7.6889228743
 20
3.3371641643
 30
0.0
 40
0.0150000000000001
100
AcDbArc
 50
270.0
 51
315.0
  0
LINE
  5
10D
330
1F
100
AcDbEntity
  8
0
  6
Continuous
 62
     7
370
    30
100
AcDbLine
 10
8.110135954
 20
4.1941641673
 30
0.0
 11
8.0771360419
 21
4.1941641673
 31
0.0
  0
LINE
  5
10E
330
1F
100
AcDbEntity
  8
0
  6
Continuous
 62
     7
370
    30
100
AcDbLine
 10
8.1401359808
 20
3.6371641885
 30
0.0
 11
8.1721359311
 21
3.6371641885
 31
0.0
  0
LINE
  5
10F
330
1F
100
AcDbEntity
  8
0
  6
Continuous
 62
     7
370
    30
100
AcDbLine
 10
8.1371360955
 20
3.5071641702
 30
0.0
 11
7.8901361488
 21
3.5071641702
 31
0.0
  0
LINE
  5
110
330
1F
100
AcDbEntity
  8
0
  6
Continuous
 62
     7
370
    30
100
AcDbLine
 10
8.1871359445
 20
3.6221641751
 30
0.0
 11
8.1871359445
 21
3.557164166
 31
0.0
  0
LINE
  5
111
330
1F
100
AcDbEntity
  8
0
  6
Continuous
 62
     7
370
    30
100
AcDbLine
 10
8.0621360285
 20
4.1791641539
 30
0.0
 11
8.0621360285
 21
3.5841641607
 31
0.0
  0
LINE
  5
112
330
1F
100
AcDbEntity
  8
0
  6
Continuous
 62
     7
370
    30
100
AcDbLine
 10
8.1251359674
 20
3.5841641607
 30
0.0
 11
8.1251359674
 21
3.6221641751
 31
0.0
  0
LINE
  5
113
330
1F
100
AcDbEntity
  8
0
  6
Continuous
 62
     7
370
    30
100
AcDbLine
 10
8.0771360419
 20
3.5691641474
 30
0.0
 11
8.110135954
 21
3.5691641474
 31
0.0
  0
LINE
  5
114
330
1F
100
AcDbEntity
  8
0
  6
Continuous
 62
     7
370
    30
100
AcDbLine
 10
3.0541361747
 20
3.6371641885
 30
0.0
 11
3.0221362244
 21
3.6371641885
 31
0.0
  0
LINE
  5
115
330
1F
100
AcDbEntity
  8
0
  6
Continuous
 62
     7
370
    30
100
AcDbLine
 10
3.0691361881
 20
3.5841641607
 30
0.0
 11
3.0691361881
 21
3.6221641751
 31
0.0
  0
LINE
  5
116
330
1F
100
AcDbEntity
  8
0
  6
Continuous
 62
     7
370
    30
100
AcDbLine
 10
3.1171361136
 20
3.5691641474
 30
0.0
 11
3.0841362015
 21
3.5691641474
 31
0.0
  0
ARC
  5
117
330
1F
100
AcDbEntity
  8
0
  6
Continuous
 62
     7
370
    30
100
AcDbCircle
 10
3.1171360778
 20
3.5841641643
 30
0.0
 40
0.0150000000000001
100
AcDbArc
 50
270.0
 51
0.0
  0
LINE
  5
118
330
1F
100
AcDbEntity
  8
0
  6
Continuous
 62
     7
370
    30
100
AcDbLine
 10
3.132136127
 20
4.1791641539
 30
0.0
 11
3.132136127
 21
3.5841641607
 31
0.0
  0
LINE
  5
119
330
1F
100
AcDbEntity
  8
0
  6
Continuous
 62
     7
370
    30
100
AcDbLine
 10
3.0841362015
 20
4.1941641673
 30
0.0
 11
3.1171361136
 21
4.1941641673
 31
0.0
  0
ARC
  5
11A
330
1F
100
AcDbEntity
  8
0
  6
Continuous
 62
     7
370
    30
100
AcDbCircle
 10
3.0841360778
 20
4.1791641643
 30
0.0
 40
0.0150000000000006
100
AcDbArc
 50
90.0
 51
180.0
  0
LINE
  5
11B
330
1F
100
AcDbEntity
  8
0
  6
Continuous
 62
     7
370
    30
100
AcDbLine
 10
3.0691361881
 20
4.1411641396
 30
0.0
 11
3.0691361881
 21
4.1791641539
 31
0.0
  0
ARC
  5
11C
330
1F
100
AcDbEntity
  8
0
  6
Continuous
 62
     7
370
    30
100
AcDbCircle
 10
3.0541360778
 20
4.1411641643
 30
0.0
 40
0.0150000000000006
100
AcDbArc
 50
270.0
 51
0.0
  0
LINE
  5
11D
330
1F
100
AcDbEntity
  8
0
  6
Continuous
 62
     7
370
    30
100
AcDbLine
 10
3.0221362244
 20
4.1261641995
 30
0.0
 11
3.0541361747
 21
4.1261641995
 31
0.0
  0
ARC
  5
11E
330
1F
100
AcDbEntity
  8
0
  6
Continuous
 62
     7
370
    30
100
AcDbCircle
 10
3.0221360778
 20
4.1411641643
 30
0.0
 40
0.0150000000000006
100
AcDbArc
 50
180.0
 51
270.0
  0
LINE
  5
11F
330
1F
100
AcDbEntity
  8
0
  6
Continuous
 62
     7
370
    30
100
AcDbLine
 10
3.007136211
 20
4.3091641721
 30
0.0
 11
3.007136211
 21
4.1411641396
 31
0.0
  0
LINE
  5
120
330
1F
100
AcDbEntity
  8
0
  6
Continuous
 62
     7
370
    30
100
AcDbLine
 10
3.0541361747
 20
4.3241641489
 30
0.0
 11
3.0221362244
 21
4.3241641489
 31
0.0
  0
LINE
  5
121
330
1F
100
AcDbEntity
  8
0
  6
Continuous
 62
     7
370
    30
100
AcDbLine
 10
3.0691361881
 20
4.2711641578
 30
0.0
 11
3.0691361881
 21
4.3091641721
 31
0.0
  0
LINE
  5
122
330
1F
100
AcDbEntity
  8
0
  6
Continuous
 62
     7
370
    30
100
AcDbLine
 10
3.1171361136
 20
4.2561641444
 30
0.0
 11
3.0841362015
 21
4.2561641444
 31
0.0
  0
LINE
  5
123
330
1F
100
AcDbEntity
  8
0
  6
Continuous
 62
     7
370
    30
100
AcDbLine
 10
3.132136127
 20
4.8661641647
 30
0.0
 11
3.132136127
 21
4.2711641578
 31
0.0
  0
LINE
  5
124
330
1F
100
AcDbEntity
  8
0
  6
Continuous
 62
     7
370
    30
100
AcDbLine
 10
3.0841362015
 20
4.8811641643
 30
0.0
 11
3.1171361136
 21
4.8811641643
 31
0.0
  0
LINE
  5
125
330
1F
100
AcDbEntity
  8
0
  6
Continuous
 62
     7
370
    30
100
AcDbLine
 10
3.0691361881
 20
4.8281641641
 30
0.0
 11
3.0691361881
 21
4.8661641647
 31
0.0
  0
LINE
  5
126
330
1F
100
AcDbEntity
  8
0
  6
Continuous
 62
     7
370
    30
100
AcDbLine
 10
3.0221362244
 20
4.8131641645
 30
0.0
 11
3.0541361747
 21
4.8131641645
 31
0.0
  0
LINE
  5
127
330
1F
100
AcDbEntity
  8
0
  6
Continuous
 62
     7
370
    30
100
AcDbLine
 10
3.007136211
 20
4.9281641647
 30
0.0
 11
3.007136211
 21
4.8281641641
 31
0.0
  0
LINE
  5
128
330
1F
100
AcDbEntity
  8
0
  6
Continuous
 62
     7
370
    30
100
AcDbLine
 10
3.3661361305
 20
4.9431641644
 30
0.0
 11
3.0221362244
 21
4.9431641644
 31
0.0
  0
LINE
  5
129
330
1F
100
AcDbEntity
  8
0
  6
Continuous
 62
     7
370
    30
100
AcDbLine
 10
3.3811361438
 20
4.7711641609
 30
0.0
 11
3.3811361438
 21
4.9281641647
 31
0.0
  0
LINE
  5
12A
330
1F
100
AcDbEntity
  8
0
  6
Continuous
 62
     7
370
    30
100
AcDbLine
 10
3.3341360335
 20
4.7561641659
 30
0.0
 11
3.3661361305
 21
4.7561641659
 31
0.0
  0
LINE
  5
12B
330
1F
100
AcDbEntity
  8
0
  6
Continuous
 62
     7
370
    30
100
AcDbLine
 10
3.1941361041
 20
3.5841641607
 30
0.0
 11
3.1941361041
 21
4.8661641647
 31
0.0
  0
LINE
  5
12C
330
1F
100
AcDbEntity
  8
0
  6
Continuous
 62
     7
370
    30
100
AcDbLine
 10
3.3041360067
 20
3.5691641474
 30
0.0
 11
3.2091361175
 21
3.5691641474
 31
0.0
  0
LINE
  5
12D
330
1F
100
AcDbEntity
  8
0
  6
Continuous
 62
     7
370
    30
100
AcDbLine
 10
3.3191360201
 20
3.8666641439
 30
0.0
 11
3.3191360201
 21
3.5841641607
 31
0.0
  0
LINE
  5
12E
330
1F
100
AcDbEntity
  8
0
  6
Continuous
 62
     7
370
    30
100
AcDbLine
 10
3.3661361305
 20
3.8816641573
 30
0.0
 11
3.3341360335
 21
3.8816641573
 31
0.0
  0
LINE
  5
12F
330
1F
100
AcDbEntity
  8
0
  6
Continuous
 62
     7
370
    30
100
AcDbLine
 10
3.3811361438
 20
3.4463774058
 30
0.0
 11
3.3811361438
 21
3.8666641439
 31
0.0
  0
LINE
  5
130
330
1F
100
AcDbEntity
  8
0
  6
Continuous
 62
     7
370
    30
100
AcDbLine
 10
3.4947426848
 20
3.32655755
 30
0.0
 11
3.3855294931
 21
3.4357707417
 31
0.0
  0
LINE
  5
131
330
1F
100
AcDbEntity
  8
0
  6
Continuous
 62
     7
370
    30
100
AcDbLine
 10
3.8661360877
 20
3.3221642007
 30
0.0
 11
3.5053493489
 21
3.3221642007
 31
0.0
  0
LINE
  5
132
330
1F
100
AcDbEntity
  8
0
  6
Continuous
 62
     7
370
    30
100
AcDbLine
 10
3.8811361011
 20
3.2341641906
 30
0.0
 11
3.8811361011
 21
3.3071641873
 31
0.0
  0
ARC
  5
133
330
1F
100
AcDbEntity
  8
0
  6
Continuous
 62
     7
370
    30
100
AcDbCircle
 10
3.8761360778
 20
3.2341641643
 30
0.0
 40
0.0049999999999999
100
AcDbArc
 50
270.0
 51
0.0
  0
ARC
  5
134
330
1F
100
AcDbEntity
  8
0
  6
Continuous
 62
     7
370
    30
100
AcDbCircle
 10
3.8761360778
 20
3.2541641643
 30
0.0
 40
0.0250000000000004
100
AcDbArc
 50
180.0
 51
270.0
  0
LINE
  5
135
330
1F
100
AcDbEntity
  8
0
  6
Continuous
 62
     7
370
    30
100
AcDbLine
 10
3.8511360744
 20
3.2605703389
 30
0.0
 11
3.8511360744
 21
3.2541641596
 31
0.0
  0
LINE
  5
136
330
1F
100
AcDbEntity
  8
0
  6
Continuous
 62
     7
370
    30
100
AcDbLine
 10
2.2709329023
 20
3.2819637718
 30
0.0
 11
3.8511360744
 21
3.2605703389
 31
0.0
  0
LINE
  5
137
330
1F
100
AcDbEntity
  8
0
  6
Continuous
 62
     7
370
    30
100
AcDbLine
 10
2.2561361666
 20
3.3071641873
 30
0.0
 11
2.2561361666
 21
3.2969624652
 31
0.0
  0
LINE
  5
138
330
1F
100
AcDbEntity
  8
0
  6
Continuous
 62
     7
370
    30
100
AcDbLine
 10
3.0521359578
 20
3.3221642007
 30
0.0
 11
2.27113618
 21
3.3221642007
 31
0.0
  0
LINE
  5
139
330
1F
100
AcDbEntity
  8
0
  6
Continuous
 62
     7
370
    30
100
AcDbLine
 10
3.0671359712
 20
3.3696641453
 30
0.0
 11
3.0671359712
 21
3.3371642141
 31
0.0
  0
LINE
  5
13A
330
1F
100
AcDbEntity
  8
0
  6
Continuous
 62
     7
370
    30
100
AcDbLine
 10
3.1141359349
 20
3.3846641587
 30
0.0
 11
3.0821359846
 21
3.3846641587
 31
0.0
  0
LINE
  5
13B
330
1F
100
AcDbEntity
  8
0
  6
Continuous
 62
     7
370
    30
100
AcDbLine
 10
3.1291359483
 20
3.3371642141
 30
0.0
 11
3.1291359483
 21
3.3696641453
 31
0.0
  0
LINE
  5
13C
330
1F
100
AcDbEntity
  8
0
  6
Continuous
 62
     7
370
    30
100
AcDbLine
 10
3.3631705647
 20
3.3221642007
 30
0.0
 11
3.1441361084
 21
3.3221642007
 31
0.0
  0
LINE
  5
13D
330
1F
100
AcDbEntity
  8
0
  6
Continuous
 62
     7
370
    30
100
AcDbLine
 10
3.323529516
 20
3.4100895583
 30
0.0
 11
3.3773127347
 21
3.3563063396
 31
0.0
  0
LINE
  5
13E
330
1F
100
AcDbEntity
  8
0
  6
Continuous
 62
     7
370
    30
100
AcDbLine
 10
3.3191360201
 20
3.4921641569
 30
0.0
 11
3.3191360201
 21
3.4206960758
 31
0.0
  0
LINE
  5
13F
330
1F
100
AcDbEntity
  8
0
  6
Continuous
 62
     7
370
    30
100
AcDbLine
 10
3.0571360601
 20
3.5071641702
 30
0.0
 11
3.3041360067
 21
3.5071641702
 31
0.0
  0
LINE
  5
140
330
1F
100
AcDbEntity
  8
0
  6
Continuous
 62
     7
370
    30
100
AcDbLine
 10
3.007136211
 20
3.6221641751
 30
0.0
 11
3.007136211
 21
3.557164166
 31
0.0
  0
ARC
  5
141
330
1F
100
AcDbEntity
  8
0
  6
Continuous
 62
     7
370
    30
100
AcDbCircle
 10
3.0571360778
 20
3.5571641643
 30
0.0
 40
0.0500000000000003
100
AcDbArc
 50
180.0
 51
270.0
  0
ARC
  5
142
330
1F
100
AcDbEntity
  8
0
  6
Continuous
 62
     7
370
    30
100
AcDbCircle
 10
3.3631705656
 20
3.3421641643
 30
0.0
 40
0.0200000000000001
100
AcDbArc
 50
270.0
 51
45.0
  0
ARC
  5
143
330
1F
100
AcDbEntity
  8
0
  6
Continuous
 62
     7
370
    30
100
AcDbCircle
 10
3.0541360778
 20
4.8281641643
 30
0.0
 40
0.0150000000000006
100
AcDbArc
 50
270.0
 51
0.0
  0
ARC
  5
144
330
1F
100
AcDbEntity
  8
0
  6
Continuous
 62
     7
370
    30
100
AcDbCircle
 10
3.3661360778
 20
4.7711641643
 30
0.0
 40
0.0150000000000006
100
AcDbArc
 50
270.0
 51
0.0
  0
ARC
  5
145
330
1F
100
AcDbEntity
  8
0
  6
Continuous
 62
     7
370
    30
100
AcDbCircle
 10
3.3661360778
 20
4.9281641643
 30
0.0
 40
0.0150000000000006
100
AcDbArc
 50
0.0
 51
90.0
  0
ARC
  5
146
330
1F
100
AcDbEntity
  8
0
  6
Continuous
 62
     7
370
    30
100
AcDbCircle
 10
3.0221360778
 20
4.8281641643
 30
0.0
 40
0.0150000000000006
100
AcDbArc
 50
180.0
 51
270.0
  0
ARC
  5
147
330
1F
100
AcDbEntity
  8
0
  6
Continuous
 62
     7
370
    30
100
AcDbCircle
 10
3.0221360778
 20
4.9281641643
 30
0.0
 40
0.0150000000000001
100
AcDbArc
 50
90.0
 51
180.0
  0
ARC
  5
148
330
1F
100
AcDbEntity
  8
0
  6
Continuous
 62
     7
370
    30
100
AcDbCircle
 10
3.0841360778
 20
4.8661641643
 30
0.0
 40
0.0149999999999997
100
AcDbArc
 50
90.0
 51
180.0
  0
ARC
  5
149
330
1F
100
AcDbEntity
  8
0
  6
Continuous
 62
     7
370
    30
100
AcDbCircle
 10
3.2091360778
 20
4.8661641643
 30
0.0
 40
0.0150000000000006
100
AcDbArc
 50
90.0
 51
180.0
  0
ARC
  5
14A
330
1F
100
AcDbEntity
  8
0
  6
Continuous
 62
     7
370
    30
100
AcDbCircle
 10
3.1171360778
 20
4.8661641643
 30
0.0
 40
0.0149999999999997
100
AcDbArc
 50
0.0
 51
90.0
  0
ARC
  5
14B
330
1F
100
AcDbEntity
  8
0
  6
Continuous
 62
     7
370
    30
100
AcDbCircle
 10
3.3041360778
 20
4.8661641643
 30
0.0
 40
0.0149999999999997
100
AcDbArc
 50
0.0
 51
90.0
  0
ARC
  5
14C
330
1F
100
AcDbEntity
  8
0
  6
Continuous
 62
     7
370
    30
100
AcDbCircle
 10
3.0221360778
 20
4.3091641643
 30
0.0
 40
0.0150000000000001
100
AcDbArc
 50
90.0
 51
180.0
  0
ARC
  5
14D
330
1F
100
AcDbEntity
  8
0
  6
Continuous
 62
     7
370
    30
100
AcDbCircle
 10
3.0541360778
 20
4.3091641643
 30
0.0
 40
0.0150000000000006
100
AcDbArc
 50
0.0
 51
90.0
  0
ARC
  5
14E
330
1F
100
AcDbEntity
  8
0
  6
Continuous
 62
     7
370
    30
100
AcDbCircle
 10
3.0841360778
 20
4.2711641643
 30
0.0
 40
0.0150000000000006
100
AcDbArc
 50
180.0
 51
270.0
  0
ARC
  5
14F
330
1F
100
AcDbEntity
  8
0
  6
Continuous
 62
     7
370
    30
100
AcDbCircle
 10
3.1171360778
 20
4.1791641643
 30
0.0
 40
0.0150000000000006
100
AcDbArc
 50
0.0
 51
90.0
  0
ARC
  5
150
330
1F
100
AcDbEntity
  8
0
  6
Continuous
 62
     7
370
    30
100
AcDbCircle
 10
3.3661360778
 20
3.8666641643
 30
0.0
 40
0.0150000000000006
100
AcDbArc
 50
0.0
 51
90.0
  0
ARC
  5
151
330
1F
100
AcDbEntity
  8
0
  6
Continuous
 62
     7
370
    30
100
AcDbCircle
 10
3.3341360778
 20
3.8666641643
 30
0.0
 40
0.0150000000000001
100
AcDbArc
 50
90.0
 51
180.0
  0
ARC
  5
152
330
1F
100
AcDbEntity
  8
0
  6
Continuous
 62
     7
370
    30
100
AcDbCircle
 10
3.3041360778
 20
3.5841641643
 30
0.0
 40
0.0150000000000001
100
AcDbArc
 50
270.0
 51
0.0
  0
ARC
  5
153
330
1F
100
AcDbEntity
  8
0
  6
Continuous
 62
     7
370
    30
100
AcDbCircle
 10
3.2091360778
 20
3.5841641643
 30
0.0
 40
0.0150000000000001
100
AcDbArc
 50
180.0
 51
270.0
  0
ARC
  5
154
330
1F
100
AcDbEntity
  8
0
  6
Continuous
 62
     7
370
    30
100
AcDbCircle
 10
3.5053492812
 20
3.3371641643
 30
0.0
 40
0.0150000000000001
100
AcDbArc
 50
225.0
 51
270.0
  0
ARC
  5
155
330
1F
100
AcDbEntity
  8
0
  6
Continuous
 62
     7
370
    30
100
AcDbCircle
 10
3.3961360778
 20
3.4463773678
 30
0.0
 40
0.0150000000000002
100
AcDbArc
 50
180.0
 51
225.0
  0
ARC
  5
156
330
1F
100
AcDbEntity
  8
0
  6
Continuous
 62
     7
370
    30
100
AcDbCircle
 10
3.8661360778
 20
3.3071641643
 30
0.0
 40
0.0150000000000001
100
AcDbArc
 50
0.0
 51
90.0
  0
ARC
  5
157
330
1F
100
AcDbEntity
  8
0
  6
Continuous
 62
     7
370
    30
100
AcDbCircle
 10
3.1171360778
 20
4.2711641643
 30
0.0
 40
0.0150000000000006
100
AcDbArc
 50
270.0
 51
0.0
  0
ARC
  5
158
330
1F
100
AcDbEntity
  8
0
  6
Continuous
 62
     7
370
    30
100
AcDbCircle
 10
3.3041360778
 20
3.4921641643
 30
0.0
 40
0.0150000000000001
100
AcDbArc
 50
0.0
 51
90.0
  0
ARC
  5
159
330
1F
100
AcDbEntity
  8
0
  6
Continuous
 62
     7
370
    30
100
AcDbCircle
 10
3.3341360778
 20
3.4206961269
 30
0.0
 40
0.0150000000000001
100
AcDbArc
 50
180.0
 51
225.0
  0
ARC
  5
15A
330
1F
100
AcDbEntity
  8
0
  6
Continuous
 62
     7
370
    30
100
AcDbCircle
 10
3.3341360778
 20
4.7711641643
 30
0.0
 40
0.0150000000000006
100
AcDbArc
 50
180.0
 51
270.0
  0
ARC
  5
15B
330
1F
100
AcDbEntity
  8
0
  6
Continuous
 62
     7
370
    30
100
AcDbCircle
 10
3.1441360778
 20
3.3371641643
 30
0.0
 40
0.0150000000000001
100
AcDbArc
 50
180.0
 51
270.0
  0
ARC
  5
15C
330
1F
100
AcDbEntity
  8
0
  6
Continuous
 62
     7
370
    30
100
AcDbCircle
 10
3.1141360778
 20
3.3696641643
 30
0.0
 40
0.0150000000000006
100
AcDbArc
 50
0.0
 51
90.0
  0
ARC
  5
15D
330
1F
100
AcDbEntity
  8
0
  6
Continuous
 62
     7
370
    30
100
AcDbCircle
 10
3.0821360778
 20
3.3696641643
 30
0.0
 40
0.0150000000000006
100
AcDbArc
 50
90.0
 51
180.0
  0
ARC
  5
15E
330
1F
100
AcDbEntity
  8
0
  6
Continuous
 62
     7
370
    30
100
AcDbCircle
 10
3.0521360778
 20
3.3371641643
 30
0.0
 40
0.0150000000000001
100
AcDbArc
 50
270.0
 51
0.0
  0
ARC
  5
15F
330
1F
100
AcDbEntity
  8
0
  6
Continuous
 62
     7
370
    30
100
AcDbCircle
 10
3.0221360778
 20
3.6221641643
 30
0.0
 40
0.0150000000000001
100
AcDbArc
 50
90.0
 51
180.0
  0
ARC
  5
160
330
1F
100
AcDbEntity
  8
0
  6
Continuous
 62
     7
370
    30
100
AcDbCircle
 10
3.0541360778
 20
3.6221641643
 30
0.0
 40
0.0150000000000006
100
AcDbArc
 50
0.0
 51
90.0
  0
ARC
  5
161
330
1F
100
AcDbEntity
  8
0
  6
Continuous
 62
     7
370
    30
100
AcDbCircle
 10
3.0841360778
 20
3.5841641643
 30
0.0
 40
0.0150000000000001
100
AcDbArc
 50
180.0
 51
270.0
  0
LINE
  5
162
330
1F
100
AcDbEntity
  8
0
  6
Continuous
 62
     7
370
    30
100
AcDbLine
 10
3.2091361175
 20
4.8811641643
 30
0.0
 11
3.3041360067
 21
4.8811641643
 31
0.0
  0
ARC
  5
163
330
1F
100
AcDbEntity
  8
0
  6
Continuous
 62
     7
370
    30
100
AcDbCircle
 10
2.2711360778
 20
3.3071641643
 30
0.0
 40
0.0150000000000006
100
AcDbArc
 50
90.0
 51
180.0
  0
ARC
  5
164
330
1F
100
AcDbEntity
  8
0
  6
Continuous
 62
     7
370
    30
100
AcDbCircle
 10
2.2711360778
 20
3.296962462
 30
0.0
 40
0.0150000000000002
100
AcDbArc
 50
180.0
 51
269.22435068
  0
LINE
  5
165
330
1F
100
AcDbEntity
  8
0
  6
Continuous
 62
     7
370
    30
100
AcDbLine
 10
3.3191360201
 20
4.8661641647
 30
0.0
 11
3.3191360201
 21
4.7711641609
 31
0.0
  0
LINE
  5
166
330
1F
100
AcDbEntity
  8
0
  6
Continuous
 62
     7
370
    30
100
AcDbLine
 10
5.4560360786
 20
3.5691641474
 30
0.0
 11
5.5512360784
 21
3.5691641474
 31
0.0
  0
ARC
  5
167
330
1F
100
AcDbEntity
  8
0
  6
Continuous
 62
     7
370
    30
100
AcDbCircle
 10
5.5512360778
 20
3.5840641643
 30
0.0
 40
0.0149000000000088
100
AcDbArc
 50
270.0
 51
0.0
  0
LINE
  5
168
330
1F
100
AcDbEntity
  8
0
  6
Continuous
 62
     7
370
    30
100
AcDbLine
 10
5.5661360777
 20
3.5840641352
 30
0.0
 11
5.5661360777
 21
4.8662641639
 31
0.0
  0
ARC
  5
169
330
1F
100
AcDbEntity
  8
0
  6
Continuous
 62
     7
370
    30
100
AcDbCircle
 10
5.6430360778
 20
3.5840641643
 30
0.0
 40
0.0149000000000044
100
AcDbArc
 50
180.0
 51
270.0
  0
LINE
  5
16A
330
1F
100
AcDbEntity
  8
0
  6
Continuous
 62
     7
370
    30
100
AcDbLine
 10
5.6281360778
 20
4.8662641639
 30
0.0
 11
5.6281360778
 21
3.5840641352
 31
0.0
  0
ARC
  5
16B
330
1F
100
AcDbEntity
  8
0
  6
Continuous
 62
     7
370
    30
100
AcDbCircle
 10
5.6430360778
 20
4.8662641643
 30
0.0
 40
0.0148999999999981
100
AcDbArc
 50
90.0
 51
180.0
  0
LINE
  5
16C
330
1F
100
AcDbEntity
  8
0
  6
Continuous
 62
     7
370
    30
100
AcDbLine
 10
5.7382360769
 20
4.8811641643
 30
0.0
 11
5.6430360771
 21
4.8811641643
 31
0.0
  0
ARC
  5
16D
330
1F
100
AcDbEntity
  8
0
  6
Continuous
 62
     7
370
    30
100
AcDbCircle
 10
5.7382360778
 20
4.8662641643
 30
0.0
 40
0.0148999999999999
100
AcDbArc
 50
0.0
 51
90.0
  0
LINE
  5
16E
330
1F
100
AcDbEntity
  8
0
  6
Continuous
 62
     7
370
    30
100
AcDbLine
 10
5.753136074
 20
4.7710641629
 30
0.0
 11
5.753136074
 21
4.8662641639
 31
0.0
  0
ARC
  5
16F
330
1F
100
AcDbEntity
  8
0
  6
Continuous
 62
     7
370
    30
100
AcDbCircle
 10
5.7680360778
 20
4.7710641643
 30
0.0
 40
0.014899999999999
100
AcDbArc
 50
180.0
 51
270.0
  0
LINE
  5
170
330
1F
100
AcDbEntity
  8
0
  6
Continuous
 62
     7
370
    30
100
AcDbLine
 10
5.8002360815
 20
4.7561641659
 30
0.0
 11
5.7680360802
 21
4.7561641659
 31
0.0
  0
ARC
  5
171
330
1F
100
AcDbEntity
  8
0
  6
Continuous
 62
     7
370
    30
100
AcDbCircle
 10
5.8002360778
 20
4.7710641643
 30
0.0
 40
0.0148999999999999
100
AcDbArc
 50
270.0
 51
0.0
  0
LINE
  5
172
330
1F
100
AcDbEntity
  8
0
  6
Continuous
 62
     7
370
    30
100
AcDbLine
 10
5.8151360694
 20
4.9282641627
 30
0.0
 11
5.8151360694
 21
4.7710641629
 31
0.0
  0
ARC
  5
173
330
1F
100
AcDbEntity
  8
0
  6
Continuous
 62
     7
370
    30
100
AcDbCircle
 10
5.8002360778
 20
4.9282641643
 30
0.0
 40
0.014899999999999
100
AcDbArc
 50
0.0
 51
90.0
  0
LINE
  5
174
330
1F
100
AcDbEntity
  8
0
  6
Continuous
 62
     7
370
    30
100
AcDbLine
 10
5.3930360755
 20
4.9431641644
 30
0.0
 11
5.8002360815
 21
4.9431641644
 31
0.0
  0
ARC
  5
175
330
1F
100
AcDbEntity
  8
0
  6
Continuous
 62
     7
370
    30
100
AcDbCircle
 10
5.3930360778
 20
4.9282641643
 30
0.0
 40
0.014899999999999
100
AcDbArc
 50
90.0
 51
180.0
  0
LINE
  5
176
330
1F
100
AcDbEntity
  8
0
  6
Continuous
 62
     7
370
    30
100
AcDbLine
 10
5.3781360693
 20
4.7710641629
 30
0.0
 11
5.3781360693
 21
4.9282641627
 31
0.0
  0
ARC
  5
177
330
1F
100
AcDbEntity
  8
0
  6
Continuous
 62
     7
370
    30
100
AcDbCircle
 10
5.3930360778
 20
4.7710641643
 30
0.0
 40
0.014899999999999
100
AcDbArc
 50
180.0
 51
270.0
  0
LINE
  5
178
330
1F
100
AcDbEntity
  8
0
  6
Continuous
 62
     7
370
    30
100
AcDbLine
 10
5.4262360753
 20
4.7561641659
 30
0.0
 11
5.3930360755
 21
4.7561641659
 31
0.0
  0
ARC
  5
179
330
1F
100
AcDbEntity
  8
0
  6
Continuous
 62
     7
370
    30
100
AcDbCircle
 10
5.4262360778
 20
4.7710641643
 30
0.0
 40
0.014899999999999
100
AcDbArc
 50
270.0
 51
0.0
  0
LINE
  5
17A
330
1F
100
AcDbEntity
  8
0
  6
Continuous
 62
     7
370
    30
100
AcDbLine
 10
5.4411360815
 20
4.8662641639
 30
0.0
 11
5.4411360815
 21
4.7710641629
 31
0.0
  0
ARC
  5
17B
330
1F
100
AcDbEntity
  8
0
  6
Continuous
 62
     7
370
    30
100
AcDbCircle
 10
5.4560360778
 20
4.8662641643
 30
0.0
 40
0.0148999999999999
100
AcDbArc
 50
90.0
 51
180.0
  0
LINE
  5
17C
330
1F
100
AcDbEntity
  8
0
  6
Continuous
 62
     7
370
    30
100
AcDbLine
 10
5.5512360784
 20
4.8811641643
 30
0.0
 11
5.4560360786
 21
4.8811641643
 31
0.0
  0
ARC
  5
17D
330
1F
100
AcDbEntity
  8
0
  6
Continuous
 62
     7
370
    30
100
AcDbCircle
 10
5.5512360778
 20
4.8662641643
 30
0.0
 40
0.014899999999999
100
AcDbArc
 50
0.0
 51
90.0
  0
ARC
  5
17E
330
1F
100
AcDbEntity
  8
0
  6
Continuous
 62
     7
370
    30
100
AcDbCircle
 10
5.4560360778
 20
3.5840641643
 30
0.0
 40
0.014899999999999
100
AcDbArc
 50
180.0
 51
270.0
  0
LINE
  5
17F
330
1F
100
AcDbEntity
  8
0
  6
Continuous
 62
     7
370
    30
100
AcDbLine
 10
5.4411360815
 20
3.8672641503
 30
0.0
 11
5.4411360815
 21
3.5840641352
 31
0.0
  0
ARC
  5
180
330
1F
100
AcDbEntity
  8
0
  6
Continuous
 62
     7
370
    30
100
AcDbCircle
 10
5.4262360778
 20
3.8672641643
 30
0.0
 40
0.014899999999999
100
AcDbArc
 50
0.0
 51
90.0
  0
LINE
  5
181
330
1F
100
AcDbEntity
  8
0
  6
Continuous
 62
     7
370
    30
100
AcDbLine
 10
5.3930360755
 20
3.8821641382
 30
0.0
 11
5.4262360753
 21
3.8821641382
 31
0.0
  0
ARC
  5
182
330
1F
100
AcDbEntity
  8
0
  6
Continuous
 62
     7
370
    30
100
AcDbCircle
 10
5.3930360778
 20
3.8672641643
 30
0.0
 40
0.014899999999999
100
AcDbArc
 50
90.0
 51
180.0
  0
LINE
  5
183
330
1F
100
AcDbEntity
  8
0
  6
Continuous
 62
     7
370
    30
100
AcDbLine
 10
5.3781360693
 20
3.5220641581
 30
0.0
 11
5.3781360693
 21
3.8672641503
 31
0.0
  0
ARC
  5
184
330
1F
100
AcDbEntity
  8
0
  6
Continuous
 62
     7
370
    30
100
AcDbCircle
 10
5.3930360778
 20
3.5220641643
 30
0.0
 40
0.014899999999999
100
AcDbArc
 50
180.0
 51
270.0
  0
LINE
  5
185
330
1F
100
AcDbEntity
  8
0
  6
Continuous
 62
     7
370
    30
100
AcDbLine
 10
5.5512360784
 20
3.5071641702
 30
0.0
 11
5.3930360755
 21
3.5071641702
 31
0.0
  0
ARC
  5
186
330
1F
100
AcDbEntity
  8
0
  6
Continuous
 62
     7
370
    30
100
AcDbCircle
 10
5.5512360778
 20
3.4922641643
 30
0.0
 40
0.014899999999999
100
AcDbArc
 50
0.0
 51
90.0
  0
LINE
  5
187
330
1F
100
AcDbEntity
  8
0
  6
Continuous
 62
     7
370
    30
100
AcDbLine
 10
5.5661360777
 20
3.4223359369
 30
0.0
 11
5.5661360777
 21
3.4922641824
 31
0.0
  0
ARC
  5
188
330
1F
100
AcDbEntity
  8
0
  6
Continuous
 62
     7
370
    30
100
AcDbCircle
 10
5.5512360778
 20
3.4223359464
 30
0.0
 40
0.0148999999999991
100
AcDbArc
 50
315.0
 51
0.0
  0
LINE
  5
189
330
1F
100
AcDbEntity
  8
0
  6
Continuous
 62
     7
370
    30
100
AcDbLine
 10
5.4765001872
 20
3.326528217
 30
0.0
 11
5.5617719698
 21
3.4118001119
 31
0.0
  0
ARC
  5
18A
330
1F
100
AcDbEntity
  8
0
  6
Continuous
 62
     7
370
    30
100
AcDbCircle
 10
5.4659642957
 20
3.3370641643
 30
0.0
 40
0.0148999999999997
100
AcDbArc
 50
270.0
 51
315.0
  0
LINE
  5
18B
330
1F
100
AcDbEntity
  8
0
  6
Continuous
 62
     7
370
    30
100
AcDbLine
 10
4.8935360991
 20
3.3221642007
 30
0.0
 11
5.4659642981
 21
3.3221642007
 31
0.0
  0
ARC
  5
18C
330
1F
100
AcDbEntity
  8
0
  6
Continuous
 62
     7
370
    30
100
AcDbCircle
 10
4.8935360778
 20
3.3072641643
 30
0.0
 40
0.014899999999999
100
AcDbArc
 50
90.0
 51
180.0
  0
LINE
  5
18D
330
1F
100
AcDbEntity
  8
0
  6
Continuous
 62
     7
370
    30
100
AcDbLine
 10
4.8786361113
 20
3.2750642115
 30
0.0
 11
4.8786361113
 21
3.3072642128
 31
0.0
  0
ARC
  5
18E
330
1F
100
AcDbEntity
  8
0
  6
Continuous
 62
     7
370
    30
100
AcDbCircle
 10
4.8935360778
 20
3.2750641643
 30
0.0
 40
0.014899999999999
100
AcDbArc
 50
180.0
 51
270.0
  0
LINE
  5
18F
330
1F
100
AcDbEntity
  8
0
  6
Continuous
 62
     7
370
    30
100
AcDbLine
 10
5.4916455364
 20
3.2601642236
 30
0.0
 11
4.8935360991
 21
3.2601642236
 31
0.0
  0
ARC
  5
190
330
1F
100
AcDbEntity
  8
0
  6
Continuous
 62
     7
370
    30
100
AcDbCircle
 10
5.4916455365
 20
3.2750641643
 30
0.0
 40
0.0148999999999991
100
AcDbArc
 50
270.0
 51
315.0
  0
LINE
  5
191
330
1F
100
AcDbEntity
  8
0
  6
Continuous
 62
     7
370
    30
100
AcDbLine
 10
5.5866001863
 20
3.3489469847
 30
0.0
 11
5.5021814255
 21
3.2645282399
 31
0.0
  0
ARC
  5
192
330
1F
100
AcDbEntity
  8
0
  6
Continuous
 62
     7
370
    30
100
AcDbCircle
 10
5.5971360778
 20
3.3384111414
 30
0.0
 40
0.0148999999999997
100
AcDbArc
 50
45.0
 51
135.0
  0
LINE
  5
193
330
1F
100
AcDbEntity
  8
0
  6
Continuous
 62
     7
370
    30
100
AcDbLine
 10
5.69209073
 20
3.2645282399
 30
0.0
 11
5.6076719692
 21
3.3489469847
 31
0.0
  0
ARC
  5
194
330
1F
100
AcDbEntity
  8
0
  6
Continuous
 62
     7
370
    30
100
AcDbCircle
 10
5.702626619
 20
3.2750641643
 30
0.0
 40
0.014899999999999
100
AcDbArc
 50
225.0
 51
270.0
  0
LINE
  5
195
330
1F
100
AcDbEntity
  8
0
  6
Continuous
 62
     7
370
    30
100
AcDbLine
 10
6.3007360564
 20
3.2601642236
 30
0.0
 11
5.7026266191
 21
3.2601642236
 31
0.0
  0
ARC
  5
196
330
1F
100
AcDbEntity
  8
0
  6
Continuous
 62
     7
370
    30
100
AcDbCircle
 10
6.3007360778
 20
3.2750641643
 30
0.0
 40
0.014899999999999
100
AcDbArc
 50
270.0
 51
0.0
  0
LINE
  5
197
330
1F
100
AcDbEntity
  8
0
  6
Continuous
 62
     7
370
    30
100
AcDbLine
 10
6.3156360443
 20
3.3072642128
 30
0.0
 11
6.3156360443
 21
3.2750642115
 31
0.0
  0
ARC
  5
198
330
1F
100
AcDbEntity
  8
0
  6
Continuous
 62
     7
370
    30
100
AcDbCircle
 10
6.3007360778
 20
3.3072641643
 30
0.0
 40
0.014899999999999
100
AcDbArc
 50
0.0
 51
90.0
  0
LINE
  5
199
330
1F
100
AcDbEntity
  8
0
  6
Continuous
 62
     7
370
    30
100
AcDbLine
 10
5.7283078574
 20
3.3221642007
 30
0.0
 11
6.3007360564
 21
3.3221642007
 31
0.0
  0
ARC
  5
19A
330
1F
100
AcDbEntity
  8
0
  6
Continuous
 62
     7
370
    30
100
AcDbCircle
 10
5.7283078598
 20
3.3370641643
 30
0.0
 40
0.0148999999999997
100
AcDbArc
 50
225.0
 51
270.0
  0
LINE
  5
19B
330
1F
100
AcDbEntity
  8
0
  6
Continuous
 62
     7
370
    30
100
AcDbLine
 10
5.6325001857
 20
3.4118001119
 30
0.0
 11
5.7177719683
 21
3.326528217
 31
0.0
  0
ARC
  5
19C
330
1F
100
AcDbEntity
  8
0
  6
Continuous
 62
     7
370
    30
100
AcDbCircle
 10
5.6430360778
 20
3.4223359464
 30
0.0
 40
0.0148999999999991
100
AcDbArc
 50
180.0
 51
225.0
  0
LINE
  5
19D
330
1F
100
AcDbEntity
  8
0
  6
Continuous
 62
     7
370
    30
100
AcDbLine
 10
5.6281360778
 20
3.4922641824
 30
0.0
 11
5.6281360778
 21
3.4223359369
 31
0.0
  0
ARC
  5
19E
330
1F
100
AcDbEntity
  8
0
  6
Continuous
 62
     7
370
    30
100
AcDbCircle
 10
5.6430360778
 20
3.4922641643
 30
0.0
 40
0.014899999999999
100
AcDbArc
 50
90.0
 51
180.0
  0
LINE
  5
19F
330
1F
100
AcDbEntity
  8
0
  6
Continuous
 62
     7
370
    30
100
AcDbLine
 10
5.8002360815
 20
3.5071641702
 30
0.0
 11
5.6430360771
 21
3.5071641702
 31
0.0
  0
ARC
  5
1A0
330
1F
100
AcDbEntity
  8
0
  6
Continuous
 62
     7
370
    30
100
AcDbCircle
 10
5.8002360778
 20
3.5220641643
 30
0.0
 40
0.0148999999999999
100
AcDbArc
 50
270.0
 51
0.0
  0
LINE
  5
1A1
330
1F
100
AcDbEntity
  8
0
  6
Continuous
 62
     7
370
    30
100
AcDbLine
 10
5.8151360694
 20
3.8672641503
 30
0.0
 11
5.8151360694
 21
3.5220641581
 31
0.0
  0
ARC
  5
1A2
330
1F
100
AcDbEntity
  8
0
  6
Continuous
 62
     7
370
    30
100
AcDbCircle
 10
5.8002360778
 20
3.8672641643
 30
0.0
 40
0.0148999999999986
100
AcDbArc
 50
0.0
 51
90.0
  0
LINE
  5
1A3
330
1F
100
AcDbEntity
  8
0
  6
Continuous
 62
     7
370
    30
100
AcDbLine
 10
5.7680360802
 20
3.8821641382
 30
0.0
 11
5.8002360815
 21
3.8821641382
 31
0.0
  0
ARC
  5
1A4
330
1F
100
AcDbEntity
  8
0
  6
Continuous
 62
     7
370
    30
100
AcDbCircle
 10
5.7680360778
 20
3.8672641643
 30
0.0
 40
0.014899999999999
100
AcDbArc
 50
90.0
 51
180.0
  0
LINE
  5
1A5
330
1F
100
AcDbEntity
  8
0
  6
Continuous
 62
     7
370
    30
100
AcDbLine
 10
5.753136074
 20
3.5840641352
 30
0.0
 11
5.753136074
 21
3.8672641503
 31
0.0
  0
ARC
  5
1A6
330
1F
100
AcDbEntity
  8
0
  6
Continuous
 62
     7
370
    30
100
AcDbCircle
 10
5.7382360778
 20
3.5840641643
 30
0.0
 40
0.014899999999999
100
AcDbArc
 50
270.0
 51
0.0
  0
LINE
  5
1A7
330
1F
100
AcDbEntity
  8
0
  6
Continuous
 62
     7
370
    30
100
AcDbLine
 10
5.6430360771
 20
3.5691641474
 30
0.0
 11
5.7382360769
 21
3.5691641474
 31
0.0
  0
ARC
  5
1A8
330
1F
100
AcDbEntity
  8
0
  6
Continuous
 62
     7
370
    30
100
AcDbCircle
 10
8.2336360778
 20
3.8271641643
 30
0.0
 40
0.0150000000000028
100
AcDbArc
 50
180.0
 51
270.0
  0
LINE
  5
1A9
330
1F
100
AcDbEntity
  8
0
  6
Continuous
 62
     7
370
    30
100
AcDbLine
 10
8.2186360606
 20
3.8271641869
 30
0.0
 11
8.2186360606
 21
4.3511641803
 31
0.0
  0
LINE
  5
1AA
330
1F
100
AcDbEntity
  8
0
  6
Continuous
 62
     7
370
    30
100
AcDbLine
 10
8.1036360558
 20
4.2661641655
 30
0.0
 11
8.0836359402
 21
4.2661641655
 31
0.0
  0
ARC
  5
1AB
330
1F
100
AcDbEntity
  8
0
  6
Continuous
 62
     7
370
    30
100
AcDbCircle
 10
8.0836360778
 20
4.2811641643
 30
0.0
 40
0.0150000000000023
100
AcDbArc
 50
180.0
 51
270.0
  0
LINE
  5
1AC
330
1F
100
AcDbEntity
  8
0
  6
Continuous
 62
     7
370
    30
100
AcDbLine
 10
8.0686362201
 20
4.8561641642
 30
0.0
 11
8.0686362201
 21
4.2811641789
 31
0.0
  0
LINE
  5
1AD
330
1F
100
AcDbEntity
  8
0
  6
Continuous
 62
     7
370
    30
100
AcDbLine
 10
8.0836359402
 20
4.8711641638
 30
0.0
 11
8.1036360558
 21
4.8711641638
 31
0.0
  0
ARC
  5
1AE
330
1F
100
AcDbEntity
  8
0
  6
Continuous
 62
     7
370
    30
100
AcDbCircle
 10
8.2536360778
 20
4.4011641643
 30
0.0
 40
0.0149999999999988
100
AcDbArc
 50
360.0
 51
90.0
  0
LINE
  5
1AF
330
1F
100
AcDbEntity
  8
0
  6
Continuous
 62
     7
370
    30
100
AcDbLine
 10
8.268636203
 20
4.401164176
 30
0.0
 11
8.268636203
 21
3.8771641826
 31
0.0
  0
ARC
  5
1B0
330
1F
100
AcDbEntity
  8
0
  6
Continuous
 62
     7
370
    30
100
AcDbCircle
 10
8.2836360778
 20
3.8771641643
 30
0.0
 40
0.0149999999999988
100
AcDbArc
 50
180.0
 51
270.0
  0
LINE
  5
1B1
330
1F
100
AcDbEntity
  8
0
  6
Continuous
 62
     7
370
    30
100
AcDbLine
 10
8.2836362164
 20
3.8621641693
 30
0.0
 11
9.4536360871
 21
3.8621641693
 31
0.0
  0
ARC
  5
1B2
330
1F
100
AcDbEntity
  8
0
  6
Continuous
 62
     7
370
    30
100
AcDbCircle
 10
9.4536360778
 20
3.8471641643
 30
0.0
 40
0.0150000000000041
100
AcDbArc
 50
0.0000000001
 51
90.0
  0
LINE
  5
1B3
330
1F
100
AcDbEntity
  8
0
  6
Continuous
 62
     7
370
    30
100
AcDbLine
 10
9.4686361005
 20
3.8471641559
 30
0.0
 11
9.4686361005
 21
3.8271641869
 31
0.0
  0
ARC
  5
1B4
330
1F
100
AcDbEntity
  8
0
  6
Continuous
 62
     7
370
    30
100
AcDbCircle
 10
9.4536360778
 20
3.8271641643
 30
0.0
 40
0.0150000000000006
100
AcDbArc
 50
270.0
 51
0.0
  0
LINE
  5
1B5
330
1F
100
AcDbEntity
  8
0
  6
Continuous
 62
     7
370
    30
100
AcDbLine
 10
8.233636074
 20
3.8121641735
 30
0.0
 11
9.4536360871
 21
3.8121641735
 31
0.0
  0
ARC
  5
1B6
330
1F
100
AcDbEntity
  8
0
  6
Continuous
 62
     7
370
    30
100
AcDbCircle
 10
8.1036360778
 20
4.2811641643
 30
0.0
 40
0.0150000000000023
100
AcDbArc
 50
270.0
 51
0.0
  0
ARC
  5
1B7
330
1F
100
AcDbEntity
  8
0
  6
Continuous
 62
     7
370
    30
100
AcDbCircle
 10
8.1036360778
 20
4.8561641643
 30
0.0
 40
0.0149999999999988
100
AcDbArc
 50
360.0
 51
90.0
  0
LINE
  5
1B8
330
1F
100
AcDbEntity
  8
0
  6
Continuous
 62
     7
370
    30
100
AcDbLine
 10
8.1336360826
 20
4.4161641527
 30
0.0
 11
8.2536361896
 21
4.4161641527
 31
0.0
  0
ARC
  5
1B9
330
1F
100
AcDbEntity
  8
0
  6
Continuous
 62
     7
370
    30
100
AcDbCircle
 10
8.1336360778
 20
4.4311641643
 30
0.0
 40
0.0149999999999988
100
AcDbArc
 50
180.0
 51
270.0
  0
ARC
  5
1BA
330
1F
100
AcDbEntity
  8
0
  6
Continuous
 62
     7
370
    30
100
AcDbCircle
 10
8.1336360778
 20
4.3511641643
 30
0.0
 40
0.0149999999999988
100
AcDbArc
 50
90.0
 51
180.0
  0
LINE
  5
1BB
330
1F
100
AcDbEntity
  8
0
  6
Continuous
 62
     7
370
    30
100
AcDbLine
 10
8.1186360692
 20
4.3511641803
 30
0.0
 11
8.1186360692
 21
4.2811641789
 31
0.0
  0
ARC
  5
1BC
330
1F
100
AcDbEntity
  8
0
  6
Continuous
 62
     7
370
    30
100
AcDbCircle
 10
8.0836360778
 20
4.8561641643
 30
0.0
 40
0.0150000000000015
100
AcDbArc
 50
90.0
 51
180.0
  0
LINE
  5
1BD
330
1F
100
AcDbEntity
  8
0
  6
Continuous
 62
     7
370
    30
100
AcDbLine
 10
8.1186360692
 20
4.8561641642
 30
0.0
 11
8.1186360692
 21
4.4311641661
 31
0.0
  0
ARC
  5
1BE
330
1F
100
AcDbEntity
  8
0
  6
Continuous
 62
     7
370
    30
100
AcDbCircle
 10
8.2036360778
 20
4.3511641643
 30
0.0
 40
0.0150000000000041
100
AcDbArc
 50
0.0
 51
90.0
  0
LINE
  5
1BF
330
1F
100
AcDbEntity
  8
0
  6
Continuous
 62
     7
370
    30
100
AcDbLine
 10
8.2036360472
 20
4.366164157
 30
0.0
 11
8.1336360826
 21
4.366164157
 31
0.0
  0
ARC
  5
1C0
330
1F
100
AcDbEntity
  8
0
  6
Continuous
 62
     7
370
    30
100
AcDbCircle
 10
2.9606360778
 20
3.9521641643
 30
0.0
 40
0.0150000000000001
100
AcDbArc
 50
270.0
 51
0.0
  0
ARC
  5
1C1
330
1F
100
AcDbEntity
  8
0
  6
Continuous
 62
     7
370
    30
100
AcDbCircle
 10
1.7406360778
 20
3.9521641643
 30
0.0
 40
0.0150000000000001
100
AcDbArc
 50
180.0
 51
270.0
  0
LINE
  5
1C2
330
1F
100
AcDbEntity
  8
0
  6
Continuous
 62
     7
370
    30
100
AcDbLine
 10
1.725636055
 20
3.9721641452
 30
0.0
 11
1.725636055
 21
3.9521641762
 31
0.0
  0
ARC
  5
1C3
330
1F
100
AcDbEntity
  8
0
  6
Continuous
 62
     7
370
    30
100
AcDbCircle
 10
1.7406360778
 20
3.9721641643
 30
0.0
 40
0.0150000000000006
100
AcDbArc
 50
90.0
 51
180.0
  0
LINE
  5
1C4
330
1F
100
AcDbEntity
  8
0
  6
Continuous
 62
     7
370
    30
100
AcDbLine
 10
1.7406360684
 20
3.9871641586
 30
0.0
 11
2.9106359391
 21
3.9871641586
 31
0.0
  0
ARC
  5
1C5
330
1F
100
AcDbEntity
  8
0
  6
Continuous
 62
     7
370
    30
100
AcDbCircle
 10
2.9106360778
 20
4.0021641643
 30
0.0
 40
0.0150000000000006
100
AcDbArc
 50
270.0
 51
0.0
  0
LINE
  5
1C6
330
1F
100
AcDbEntity
  8
0
  6
Continuous
 62
     7
370
    30
100
AcDbLine
 10
2.9256359525
 20
4.002164172
 30
0.0
 11
2.9256359525
 21
4.401164176
 31
0.0
  0
ARC
  5
1C7
330
1F
100
AcDbEntity
  8
0
  6
Continuous
 62
     7
370
    30
100
AcDbCircle
 10
2.9406360778
 20
4.4011641643
 30
0.0
 40
0.0150000000000006
100
AcDbArc
 50
90.0
 51
180.0
  0
LINE
  5
1C8
330
1F
100
AcDbEntity
  8
0
  6
Continuous
 62
     7
370
    30
100
AcDbLine
 10
2.9406359659
 20
4.4161641527
 30
0.0
 11
3.060636073
 21
4.4161641527
 31
0.0
  0
ARC
  5
1C9
330
1F
100
AcDbEntity
  8
0
  6
Continuous
 62
     7
370
    30
100
AcDbCircle
 10
3.0606360778
 20
4.4311641643
 30
0.0
 40
0.0149999999999997
100
AcDbArc
 50
270.0
 51
0.0
  0
LINE
  5
1CA
330
1F
100
AcDbEntity
  8
0
  6
Continuous
 62
     7
370
    30
100
AcDbLine
 10
3.0756360863
 20
4.4311641661
 30
0.0
 11
3.0756360863
 21
4.8561641642
 31
0.0
  0
LINE
  5
1CB
330
1F
100
AcDbEntity
  8
0
  6
Continuous
 62
     7
370
    30
100
AcDbLine
 10
3.0906360997
 20
4.8711641638
 30
0.0
 11
3.1106362153
 21
4.8711641638
 31
0.0
  0
ARC
  5
1CC
330
1F
100
AcDbEntity
  8
0
  6
Continuous
 62
     7
370
    30
100
AcDbCircle
 10
3.1106360778
 20
4.8561641643
 30
0.0
 40
0.0150000000000006
100
AcDbArc
 50
0.0
 51
90.0
  0
LINE
  5
1CD
330
1F
100
AcDbEntity
  8
0
  6
Continuous
 62
     7
370
    30
100
AcDbLine
 10
3.1256359354
 20
4.8561641642
 30
0.0
 11
3.1256359354
 21
4.2811641789
 31
0.0
  0
ARC
  5
1CE
330
1F
100
AcDbEntity
  8
0
  6
Continuous
 62
     7
370
    30
100
AcDbCircle
 10
3.1106360778
 20
4.2811641643
 30
0.0
 40
0.0150000000000001
100
AcDbArc
 50
270.0
 51
0.0
  0
LINE
  5
1CF
330
1F
100
AcDbEntity
  8
0
  6
Continuous
 62
     7
370
    30
100
AcDbLine
 10
3.1106362153
 20
4.2661641655
 30
0.0
 11
3.0906360997
 21
4.2661641655
 31
0.0
  0
ARC
  5
1D0
330
1F
100
AcDbEntity
  8
0
  6
Continuous
 62
     7
370
    30
100
AcDbCircle
 10
3.0906360778
 20
4.2811641643
 30
0.0
 40
0.0150000000000001
100
AcDbArc
 50
180.0
 51
270.0
  0
LINE
  5
1D1
330
1F
100
AcDbEntity
  8
0
  6
Continuous
 62
     7
370
    30
100
AcDbLine
 10
3.0756360863
 20
4.2811641789
 30
0.0
 11
3.0756360863
 21
4.3511641803
 31
0.0
  0
ARC
  5
1D2
330
1F
100
AcDbEntity
  8
0
  6
Continuous
 62
     7
370
    30
100
AcDbCircle
 10
3.0606360778
 20
4.3511641643
 30
0.0
 40
0.0149999999999997
100
AcDbArc
 50
0.0
 51
90.0
  0
LINE
  5
1D3
330
1F
100
AcDbEntity
  8
0
  6
Continuous
 62
     7
370
    30
100
AcDbLine
 10
3.060636073
 20
4.366164157
 30
0.0
 11
2.9906361083
 21
4.366164157
 31
0.0
  0
ARC
  5
1D4
330
1F
100
AcDbEntity
  8
0
  6
Continuous
 62
     7
370
    30
100
AcDbCircle
 10
2.9906360778
 20
4.3511641643
 30
0.0
 40
0.0149999999999997
100
AcDbArc
 50
90.0
 51
180.0
  0
LINE
  5
1D5
330
1F
100
AcDbEntity
  8
0
  6
Continuous
 62
     7
370
    30
100
AcDbLine
 10
2.9756360949
 20
4.3511641803
 30
0.0
 11
2.9756360949
 21
3.9521641762
 31
0.0
  0
LINE
  5
1D6
330
1F
100
AcDbEntity
  8
0
  6
Continuous
 62
     7
370
    30
100
AcDbLine
 10
1.7406360684
 20
3.9371641629
 30
0.0
 11
2.9606360815
 21
3.9371641629
 31
0.0
  0
ARC
  5
1D7
330
1F
100
AcDbEntity
  8
0
  6
Continuous
 62
     7
370
    30
100
AcDbCircle
 10
3.0906360778
 20
4.8561641643
 30
0.0
 40
0.0150000000000006
100
AcDbArc
 50
90.0
 51
180.0
  0
LINE
  5
1D8
330
1F
100
AcDbEntity
  8
0
  6
Continuous
 62
     7
370
    30
100
AcDbLine
 10
5.9107354884
 20
4.2721641562
 30
0.0
 11
6.7205366735
 21
4.2721641562
 31
0.0
  0
ARC
  5
1D9
330
1F
100
AcDbEntity
  8
0
  6
Continuous
 62
     7
370
    30
100
AcDbCircle
 10
5.7711360778
 20
4.3031641644
 30
0.0
 40
0.1430000000000008
100
AcDbArc
 50
12.5201657706
 51
347.4798342294
  0
ARC
  5
1DA
330
1F
100
AcDbEntity
  8
0
  6
Continuous
 62
     7
370
    30
100
AcDbCircle
 10
6.8601360778
 20
4.3031641644
 30
0.0
 40
0.1430000000000027
100
AcDbArc
 50
192.5201657706
 51
167.4798342294
  0
LINE
  5
1DB
330
1F
100
AcDbEntity
  8
0
  6
Continuous
 62
     7
370
    30
100
AcDbLine
 10
6.7205366735
 20
4.33416417
 30
0.0
 11
5.9107354884
 21
4.33416417
 31
0.0
  0
LINE
  5
1DC
330
1F
100
AcDbEntity
  8
0
  6
Continuous
 62
     7
370
    30
100
AcDbLine
 10
3.4767354528
 20
4.2721641562
 30
0.0
 11
4.2865367112
 21
4.2721641562
 31
0.0
  0
ARC
  5
1DD
330
1F
100
AcDbEntity
  8
0
  6
Continuous
 62
     7
370
    30
100
AcDbCircle
 10
3.3371360778
 20
4.3031641643
 30
0.0
 40
0.1430000000000008
100
AcDbArc
 50
12.5201657706
 51
347.4798342294
  0
ARC
  5
1DE
330
1F
100
AcDbEntity
  8
0
  6
Continuous
 62
     7
370
    30
100
AcDbCircle
 10
4.4261360778
 20
4.3031641643
 30
0.0
 40
0.1430000000000027
100
AcDbArc
 50
192.5201657706
 51
167.4798342294
  0
LINE
  5
1DF
330
1F
100
AcDbEntity
  8
0
  6
Continuous
 62
     7
370
    30
100
AcDbLine
 10
4.2865367112
 20
4.33416417
 30
0.0
 11
3.4767354528
 21
4.33416417
 31
0.0
  0
LINE
  5
1E0
330
1F
100
AcDbEntity
  8
0
  6
Continuous
 62
     7
370
    30
100
AcDbLine
 10
3.1996360405
 20
3.6959060766
 30
0.0
 11
3.1996360405
 21
4.0585526006
 31
0.0
  0
LINE
  5
1E1
330
1F
100
AcDbEntity
  8
0
  6
Continuous
 62
     7
370
    30
100
AcDbLine
 10
3.1996360405
 20
4.0585526006
 30
0.0
 11
3.3136360836
 21
4.0585526006
 31
0.0
  0
LINE
  5
1E2
330
1F
100
AcDbEntity
  8
0
  6
Continuous
 62
     7
370
    30
100
AcDbLine
 10
3.3136360836
 20
3.6959060766
 30
0.0
 11
3.3136360836
 21
4.0585526006
 31
0.0
  0
LINE
  5
1E3
330
1F
100
AcDbEntity
  8
0
  6
Continuous
 62
     7
370
    30
100
AcDbLine
 10
3.1996360405
 20
4.0585526006
 30
0.0
 11
3.1996360405
 21
4.069164178
 31
0.0
  0
LINE
  5
1E4
330
1F
100
AcDbEntity
  8
0
  6
Continuous
 62
     7
370
    30
100
AcDbLine
 10
3.1996360405
 20
4.069164178
 30
0.0
 11
3.3136360836
 21
4.069164178
 31
0.0
  0
LINE
  5
1E5
330
1F
100
AcDbEntity
  8
0
  6
Continuous
 62
     7
370
    30
100
AcDbLine
 10
3.3136360836
 20
4.0585526006
 30
0.0
 11
3.3136360836
 21
4.069164178
 31
0.0
  0
LINE
  5
1E6
330
1F
100
AcDbEntity
  8
0
  6
Continuous
 62
     7
370
    30
100
AcDbLine
 10
3.3136360836
 20
3.5725559215
 30
0.0
 11
3.3136360836
 21
3.6959060766
 31
0.0
  0
LINE
  5
1E7
330
1F
100
AcDbEntity
  8
0
  6
Continuous
 62
     7
370
    30
100
AcDbLine
 10
3.1996360405
 20
3.5725559215
 30
0.0
 11
3.1996360405
 21
3.6959060766
 31
0.0
  0
LINE
  5
1E8
330
1F
100
AcDbEntity
  8
0
  6
Continuous
 62
     7
370
    30
100
AcDbLine
 10
7.8806360719
 20
4.0585526006
 30
0.0
 11
7.994636115
 21
4.0585526006
 31
0.0
  0
LINE
  5
1E9
330
1F
100
AcDbEntity
  8
0
  6
Continuous
 62
     7
370
    30
100
AcDbLine
 10
7.8806360719
 20
3.6959060766
 30
0.0
 11
7.8806360719
 21
4.0585526006
 31
0.0
  0
LINE
  5
1EA
330
1F
100
AcDbEntity
  8
0
  6
Continuous
 62
     7
370
    30
100
AcDbLine
 10
7.994636115
 20
3.6959060766
 30
0.0
 11
7.994636115
 21
4.0585526006
 31
0.0
  0
LINE
  5
1EB
330
1F
100
AcDbEntity
  8
0
  6
Continuous
 62
     7
370
    30
100
AcDbLine
 10
7.8806360719
 20
4.069164178
 30
0.0
 11
7.994636115
 21
4.069164178
 31
0.0
  0
LINE
  5
1EC
330
1F
100
AcDbEntity
  8
0
  6
Continuous
 62
     7
370
    30
100
AcDbLine
 10
7.8806360719
 20
4.0585526006
 30
0.0
 11
7.8806360719
 21
4.069164178
 31
0.0
  0
LINE
  5
1ED
330
1F
100
AcDbEntity
  8
0
  6
Continuous
 62
     7
370
    30
100
AcDbLine
 10
7.994636115
 20
4.0585526006
 30
0.0
 11
7.994636115
 21
4.069164178
 31
0.0
  0
LINE
  5
1EE
330
1F
100
AcDbEntity
  8
0
  6
Continuous
 62
     7
370
    30
100
AcDbLine
 10
7.8806360719
 20
3.5725559215
 30
0.0
 11
7.8806360719
 21
3.6959060766
 31
0.0
  0
LINE
  5
1EF
330
1F
100
AcDbEntity
  8
0
  6
Continuous
 62
     7
370
    30
100
AcDbLine
 10
7.994636115
 20
3.5725559215
 30
0.0
 11
7.994636115
 21
3.6959060766
 31
0.0
  0
LINE
  5
1F0
330
1F
100
AcDbEntity
  8
0
  6
Continuous
 62
     7
370
    30
100
AcDbLine
 10
5.4466360822
 20
4.0585526006
 30
0.0
 11
5.5606360771
 21
4.0585526006
 31
0.0
  0
LINE
  5
1F1
330
1F
100
AcDbEntity
  8
0
  6
Continuous
 62
     7
370
    30
100
AcDbLine
 10
5.5606360771
 20
3.6959060766
 30
0.0
 11
5.5606360771
 21
4.0585526006
 31
0.0
  0
LINE
  5
1F2
330
1F
100
AcDbEntity
  8
0
  6
Continuous
 62
     7
370
    30
100
AcDbLine
 10
5.4466360822
 20
3.6959060766
 30
0.0
 11
5.4466360822
 21
4.0585526006
 31
0.0
  0
LINE
  5
1F3
330
1F
100
AcDbEntity
  8
0
  6
Continuous
 62
     7
370
    30
100
AcDbLine
 10
5.4466360822
 20
4.069164178
 30
0.0
 11
5.5606360771
 21
4.069164178
 31
0.0
  0
LINE
  5
1F4
330
1F
100
AcDbEntity
  8
0
  6
Continuous
 62
     7
370
    30
100
AcDbLine
 10
5.5606360771
 20
4.0585526006
 30
0.0
 11
5.5606360771
 21
4.069164178
 31
0.0
  0
LINE
  5
1F5
330
1F
100
AcDbEntity
  8
0
  6
Continuous
 62
     7
370
    30
100
AcDbLine
 10
5.4466360822
 20
4.0585526006
 30
0.0
 11
5.4466360822
 21
4.069164178
 31
0.0
  0
LINE
  5
1F6
330
1F
100
AcDbEntity
  8
0
  6
Continuous
 62
     7
370
    30
100
AcDbLine
 10
5.5606360771
 20
3.5725034154
 30
0.0
 11
5.5606360771
 21
3.6959060766
 31
0.0
  0
LINE
  5
1F7
330
1F
100
AcDbEntity
  8
0
  6
Continuous
 62
     7
370
    30
100
AcDbLine
 10
5.4466360822
 20
3.5725034154
 30
0.0
 11
5.4466360822
 21
3.6959060766
 31
0.0
  0
LINE
  5
1F8
330
1F
100
AcDbEntity
  8
0
  6
Continuous
 62
     7
370
    30
100
AcDbLine
 10
5.6336360784
 20
3.6959060766
 30
0.0
 11
5.6336360784
 21
4.0585526006
 31
0.0
  0
LINE
  5
1F9
330
1F
100
AcDbEntity
  8
0
  6
Continuous
 62
     7
370
    30
100
AcDbLine
 10
5.6336360784
 20
4.0585526006
 30
0.0
 11
5.7476360733
 21
4.0585526006
 31
0.0
  0
LINE
  5
1FA
330
1F
100
AcDbEntity
  8
0
  6
Continuous
 62
     7
370
    30
100
AcDbLine
 10
5.7476360733
 20
3.6959060766
 30
0.0
 11
5.7476360733
 21
4.0585526006
 31
0.0
  0
LINE
  5
1FB
330
1F
100
AcDbEntity
  8
0
  6
Continuous
 62
     7
370
    30
100
AcDbLine
 10
5.6336360784
 20
4.069164178
 30
0.0
 11
5.7476360733
 21
4.069164178
 31
0.0
  0
LINE
  5
1FC
330
1F
100
AcDbEntity
  8
0
  6
Continuous
 62
     7
370
    30
100
AcDbLine
 10
5.6336360784
 20
4.0585526006
 30
0.0
 11
5.6336360784
 21
4.069164178
 31
0.0
  0
LINE
  5
1FD
330
1F
100
AcDbEntity
  8
0
  6
Continuous
 62
     7
370
    30
100
AcDbLine
 10
5.7476360733
 20
4.0585526006
 30
0.0
 11
5.7476360733
 21
4.069164178
 31
0.0
  0
LINE
  5
1FE
330
1F
100
AcDbEntity
  8
0
  6
Continuous
 62
     7
370
    30
100
AcDbLine
 10
5.6336360784
 20
3.5725034154
 30
0.0
 11
5.6336360784
 21
3.6959060766
 31
0.0
  0
LINE
  5
1FF
330
1F
100
AcDbEntity
  8
0
  6
Continuous
 62
     7
370
    30
100
AcDbLine
 10
5.7476360733
 20
3.5725034154
 30
0.0
 11
5.7476360733
 21
3.6959060766
 31
0.0
  0
ARC
  5
200
330
1F
100
AcDbEntity
  8
0
  6
Continuous
 62
     7
370
    30
100
AcDbCircle
 10
7.8206360778
 20
3.9731641643
 30
0.0
 40
0.0620000000000105
100
AcDbArc
 50
14.5925506021
 51
90.0
  0
LINE
  5
201
330
1F
100
AcDbEntity
  8
0
  6
Continuous
 62
     7
370
    30
100
AcDbLine
 10
7.8206360184
 20
4.0351641574
 30
0.0
 11
5.807636081
 21
4.0351641574
 31
0.0
  0
ARC
  5
202
330
1F
100
AcDbEntity
  8
0
  6
Continuous
 62
     7
370
    30
100
AcDbCircle
 10
5.8076360778
 20
3.9731641643
 30
0.0
 40
0.062
100
AcDbArc
 50
90.0
 51
165.4074493979
  0
LINE
  5
203
330
1F
100
AcDbEntity
  8
0
  6
Continuous
 62
     7
370
    30
100
AcDbLine
 10
5.6356360776
 20
4.1291641582
 30
0.0
 11
5.6356360776
 21
4.069164178
 31
0.0
  0
ARC
  5
204
330
1F
100
AcDbEntity
  8
0
  6
Continuous
 62
     7
370
    30
100
AcDbCircle
 10
5.6666360778
 20
4.1291641643
 30
0.0
 40
0.0310000000000272
100
AcDbArc
 50
90.0
 51
180.0
  0
LINE
  5
205
330
1F
100
AcDbEntity
  8
0
  6
Continuous
 62
     7
370
    30
100
AcDbLine
 10
5.6666360799
 20
4.1601641467
 30
0.0
 11
7.9616360562
 21
4.1601641467
 31
0.0
  0
ARC
  5
206
330
1F
100
AcDbEntity
  8
0
  6
Continuous
 62
     7
370
    30
100
AcDbCircle
 10
7.9616360778
 20
4.1291641643
 30
0.0
 40
0.0310000000000015
100
AcDbArc
 50
360.0
 51
90.0
  0
LINE
  5
207
330
1F
100
AcDbEntity
  8
0
  6
Continuous
 62
     7
370
    30
100
AcDbLine
 10
7.9926360447
 20
4.1291641582
 30
0.0
 11
7.9926360447
 21
4.069164178
 31
0.0
  0
ARC
  5
208
330
1F
100
AcDbEntity
  8
0
  6
Continuous
 62
     7
370
    30
100
AcDbCircle
 10
5.3866360778
 20
3.9731641643
 30
0.0
 40
0.06200000000001
100
AcDbArc
 50
14.5925506019
 51
90.0
  0
LINE
  5
209
330
1F
100
AcDbEntity
  8
0
  6
Continuous
 62
     7
370
    30
100
AcDbLine
 10
5.3866360745
 20
4.0351641574
 30
0.0
 11
3.3736361372
 21
4.0351641574
 31
0.0
  0
ARC
  5
20A
330
1F
100
AcDbEntity
  8
0
  6
Continuous
 62
     7
370
    30
100
AcDbCircle
 10
3.3736360778
 20
3.9731641643
 30
0.0
 40
0.0620000000000002
100
AcDbArc
 50
90.0
 51
165.4074493979
  0
LINE
  5
20B
330
1F
100
AcDbEntity
  8
0
  6
Continuous
 62
     7
370
    30
100
AcDbLine
 10
3.2016361108
 20
4.1291641582
 30
0.0
 11
3.2016361108
 21
4.069164178
 31
0.0
  0
ARC
  5
20C
330
1F
100
AcDbEntity
  8
0
  6
Continuous
 62
     7
370
    30
100
AcDbCircle
 10
3.2326360778
 20
4.1291641643
 30
0.0
 40
0.0310000000000272
100
AcDbArc
 50
90.0
 51
180.0
  0
LINE
  5
20D
330
1F
100
AcDbEntity
  8
0
  6
Continuous
 62
     7
370
    30
100
AcDbLine
 10
3.2326360993
 20
4.1601641467
 30
0.0
 11
5.5276360756
 21
4.1601641467
 31
0.0
  0
ARC
  5
20E
330
1F
100
AcDbEntity
  8
0
  6
Continuous
 62
     7
370
    30
100
AcDbCircle
 10
5.5276360778
 20
4.1291641643
 30
0.0
 40
0.0310000000000015
100
AcDbArc
 50
359.9999999999
 51
90.0
  0
LINE
  5
20F
330
1F
100
AcDbEntity
  8
0
  6
Continuous
 62
     7
370
    30
100
AcDbLine
 10
5.5586360779
 20
4.1291641582
 30
0.0
 11
5.5586360779
 21
4.069164178
 31
0.0
  0
LINE
  5
210
330
1F
100
AcDbEntity
  8
0
  6
Continuous
 62
     7
370
    30
100
AcDbLine
 10
7.9926360447
 20
4.4771641681
 30
0.0
 11
7.9926360447
 21
4.8501641643
 31
0.0
  0
ARC
  5
211
330
1F
100
AcDbEntity
  8
0
  6
Continuous
 62
     7
370
    30
100
AcDbCircle
 10
7.9616360778
 20
4.4771641643
 30
0.0
 40
0.0310000000000219
100
AcDbArc
 50
270.0
 51
0.0
  0
LINE
  5
212
330
1F
100
AcDbEntity
  8
0
  6
Continuous
 62
     7
370
    30
100
AcDbLine
 10
7.9616360562
 20
4.4461641795
 30
0.0
 11
5.6666360799
 21
4.4461641795
 31
0.0
  0
ARC
  5
213
330
1F
100
AcDbEntity
  8
0
  6
Continuous
 62
     7
370
    30
100
AcDbCircle
 10
5.6666360778
 20
4.4771641643
 30
0.0
 40
0.0310000000000237
100
AcDbArc
 50
180.0
 51
269.9999999999
  0
LINE
  5
214
330
1F
100
AcDbEntity
  8
0
  6
Continuous
 62
     7
370
    30
100
AcDbLine
 10
5.6356360776
 20
4.4771641681
 30
0.0
 11
5.6356360776
 21
4.8501641643
 31
0.0
  0
ARC
  5
215
330
1F
100
AcDbEntity
  8
0
  6
Continuous
 62
     7
370
    30
100
AcDbCircle
 10
5.6666360778
 20
4.8501641643
 30
0.0
 40
0.0310000000000041
100
AcDbArc
 50
90.0
 51
180.0
  0
ARC
  5
216
330
1F
100
AcDbEntity
  8
0
  6
Continuous
 62
     7
370
    30
100
AcDbCircle
 10
5.7146360778
 20
4.8501641643
 30
0.0
 40
0.0310000000000041
100
AcDbArc
 50
0.0
 51
90.0
  0
LINE
  5
217
330
1F
100
AcDbEntity
  8
0
  6
Continuous
 62
     7
370
    30
100
AcDbLine
 10
5.7456360764
 20
4.8501641643
 30
0.0
 11
5.7456360764
 21
4.6331641643
 31
0.0
  0
ARC
  5
218
330
1F
100
AcDbEntity
  8
0
  6
Continuous
 62
     7
370
    30
100
AcDbCircle
 10
5.8076360778
 20
4.6331641643
 30
0.0
 40
0.0619999999999958
100
AcDbArc
 50
180.0
 51
270.0
  0
LINE
  5
219
330
1F
100
AcDbEntity
  8
0
  6
Continuous
 62
     7
370
    30
100
AcDbLine
 10
5.807636081
 20
4.5711641688
 30
0.0
 11
7.8206360184
 21
4.5711641688
 31
0.0
  0
ARC
  5
21A
330
1F
100
AcDbEntity
  8
0
  6
Continuous
 62
     7
370
    30
100
AcDbCircle
 10
7.8206360778
 20
4.6331641643
 30
0.0
 40
0.0620000000000038
100
AcDbArc
 50
270.0
 51
360.0
  0
LINE
  5
21B
330
1F
100
AcDbEntity
  8
0
  6
Continuous
 62
     7
370
    30
100
AcDbLine
 10
7.8826361421
 20
4.6331641643
 30
0.0
 11
7.8826361421
 21
4.8501641643
 31
0.0
  0
ARC
  5
21C
330
1F
100
AcDbEntity
  8
0
  6
Continuous
 62
     7
370
    30
100
AcDbCircle
 10
7.9136360778
 20
4.8501641643
 30
0.0
 40
0.0309999999999935
100
AcDbArc
 50
90.0
 51
180.0
  0
ARC
  5
21D
330
1F
100
AcDbEntity
  8
0
  6
Continuous
 62
     7
370
    30
100
AcDbCircle
 10
7.9616360778
 20
4.8501641643
 30
0.0
 40
0.0310000000000104
100
AcDbArc
 50
360.0
 51
90.0
  0
LINE
  5
21E
330
1F
100
AcDbEntity
  8
0
  6
Continuous
 62
     7
370
    30
100
AcDbLine
 10
5.5586360779
 20
4.4771641681
 30
0.0
 11
5.5586360779
 21
4.8501641643
 31
0.0
  0
ARC
  5
21F
330
1F
100
AcDbEntity
  8
0
  6
Continuous
 62
     7
370
    30
100
AcDbCircle
 10
5.5276360778
 20
4.4771641643
 30
0.0
 40
0.031000000000021
100
AcDbArc
 50
270.0
 51
0.0
  0
LINE
  5
220
330
1F
100
AcDbEntity
  8
0
  6
Continuous
 62
     7
370
    30
100
AcDbLine
 10
5.5276360756
 20
4.4461641795
 30
0.0
 11
3.2326360993
 21
4.4461641795
 31
0.0
  0
ARC
  5
221
330
1F
100
AcDbEntity
  8
0
  6
Continuous
 62
     7
370
    30
100
AcDbCircle
 10
3.2326360778
 20
4.4771641643
 30
0.0
 40
0.0310000000000228
100
AcDbArc
 50
180.0
 51
269.9999999999
  0
LINE
  5
222
330
1F
100
AcDbEntity
  8
0
  6
Continuous
 62
     7
370
    30
100
AcDbLine
 10
3.2016361108
 20
4.4771641681
 30
0.0
 11
3.2016361108
 21
4.8501641643
 31
0.0
  0
ARC
  5
223
330
1F
100
AcDbEntity
  8
0
  6
Continuous
 62
     7
370
    30
100
AcDbCircle
 10
3.2326360778
 20
4.8501641643
 30
0.0
 40
0.0310000000000041
100
AcDbArc
 50
90.0
 51
180.0
  0
ARC
  5
224
330
1F
100
AcDbEntity
  8
0
  6
Continuous
 62
     7
370
    30
100
AcDbCircle
 10
3.2806360778
 20
4.8501641643
 30
0.0
 40
0.0310000000000041
100
AcDbArc
 50
0.0
 51
90.0
  0
LINE
  5
225
330
1F
100
AcDbEntity
  8
0
  6
Continuous
 62
     7
370
    30
100
AcDbLine
 10
3.3116360134
 20
4.8501641643
 30
0.0
 11
3.3116360134
 21
4.6331641643
 31
0.0
  0
ARC
  5
226
330
1F
100
AcDbEntity
  8
0
  6
Continuous
 62
     7
370
    30
100
AcDbCircle
 10
3.3736360778
 20
4.6331641643
 30
0.0
 40
0.0619999999999954
100
AcDbArc
 50
180.0
 51
270.0
  0
LINE
  5
227
330
1F
100
AcDbEntity
  8
0
  6
Continuous
 62
     7
370
    30
100
AcDbLine
 10
3.3736361372
 20
4.5711641688
 30
0.0
 11
5.3866360745
 21
4.5711641688
 31
0.0
  0
ARC
  5
228
330
1F
100
AcDbEntity
  8
0
  6
Continuous
 62
     7
370
    30
100
AcDbCircle
 10
5.3866360778
 20
4.6331641643
 30
0.0
 40
0.0620000000000038
100
AcDbArc
 50
270.0
 51
360.0
  0
LINE
  5
229
330
1F
100
AcDbEntity
  8
0
  6
Continuous
 62
     7
370
    30
100
AcDbLine
 10
5.4486360791
 20
4.6331641643
 30
0.0
 11
5.4486360791
 21
4.8501641643
 31
0.0
  0
ARC
  5
22A
330
1F
100
AcDbEntity
  8
0
  6
Continuous
 62
     7
370
    30
100
AcDbCircle
 10
5.4796360778
 20
4.8501641643
 30
0.0
 40
0.0309999999999926
100
AcDbArc
 50
90.0
 51
180.0
  0
ARC
  5
22B
330
1F
100
AcDbEntity
  8
0
  6
Continuous
 62
     7
370
    30
100
AcDbCircle
 10
5.5276360778
 20
4.8501641643
 30
0.0
 40
0.0310000000000104
100
AcDbArc
 50
360.0
 51
90.0
  0
LINE
  5
22C
330
1F
100
AcDbEntity
  8
0
  6
Continuous
 62
     8
370
     0
100
AcDbLine
 10
3.1996360405
 20
3.6959060766
 30
0.0
 11
3.3136360836
 21
3.6959060766
 31
0.0
  0
LINE
  5
22D
330
1F
100
AcDbEntity
  8
0
  6
Continuous
 62
     8
370
     0
100
AcDbLine
 10
7.8806360719
 20
3.6959060766
 30
0.0
 11
7.994636115
 21
3.6959060766
 31
0.0
  0
LINE
  5
22E
330
1F
100
AcDbEntity
  8
0
  6
Continuous
 62
     8
370
     0
100
AcDbLine
 10
5.4466360822
 20
3.6959060766
 30
0.0
 11
5.5606360771
 21
3.6959060766
 31
0.0
  0
LINE
  5
22F
330
1F
100
AcDbEntity
  8
0
  6
Continuous
 62
     8
370
     0
100
AcDbLine
 10
5.6336360784
 20
3.6959060766
 30
0.0
 11
5.7476360733
 21
3.6959060766
 31
0.0
  0
DIMENSION
  5
230
330
1F
100
AcDbEntity
  8
FORMAT
100
AcDbDimension
  2
*D5
 10
4.8786360778
 20
2.8446103586
 30
0.0
 11
4.3798860778
 21
2.8446103586
 31
0.0
 70
   160
 71
     2
 42
-1.0
  3
SLDDIMSTYLE0
100
AcDbAlignedDimension
 13
3.8811360778
 23
3.2341641643
 33
0.0
 14
4.8786360778
 24
3.2750641643
 34
0.0
 50
0.0
100
AcDbRotatedDimension
  0
DIMENSION
  5
23C
330
1F
100
AcDbEntity
  8
FORMAT
100
AcDbDimension
  2
*D6
 10
6.3156360778
 20
2.8446103586
 30
0.0
 11
5.5971360778
 21
2.8446103586
 31
0.0
 70
   160
 71
     2
 42
-1.0
  3
SLDDIMSTYLE1
100
AcDbAlignedDimension
 13
4.8786360778
 23
3.2750641643
 33
0.0
 14
6.3156360778
 24
3.2750641643
 34
0.0
100
AcDbRotatedDimension
  0
DIMENSION
  5
248
330
1F
100
AcDbEntity
  8
FORMAT
100
AcDbDimension
  2
*D7
 10
7.3131360778
 20
2.8446103586
 30
0.0
 11
6.8143860778
 21
2.8446103586
 31
0.0
 70
   160
 71
     2
 42
-1.0
  3
SLDDIMSTYLE0
100
AcDbAlignedDimension
 13
6.3156360778
 23
3.2750641643
 33
0.0
 14
7.3131360778
 24
3.2341641643
 34
0.0
100
AcDbRotatedDimension
  0
DIMENSION
  5
253
330
1F
100
AcDbEntity
  8
FORMAT
100
AcDbDimension
  2
*D8
 10
8.9381360778
 20
2.8446103586
 30
0.0
 11
8.1256360778
 21
2.8446103586
 31
0.0
 70
   160
 71
     2
 42
-1.0
  3
SLDDIMSTYLE1
100
AcDbAlignedDimension
 13
7.3131360778
 23
3.2341641643
 33
0.0
 14
8.9381360778
 24
3.296962462
 34
0.0
100
AcDbRotatedDimension
  0
DIMENSION
  5
25E
330
1F
100
AcDbEntity
  8
FORMAT
100
AcDbDimension
  2
*D9
 10
2.2561360778
 20
2.3704712723
 30
0.0
 11
5.5971360778
 21
2.3704712723
 31
0.0
 70
   160
 71
     2
 42
-1.0
  3
SLDDIMSTYLE1
100
AcDbAlignedDimension
 13
8.9381360778
 23
3.296962462
 33
0.0
 14
2.2561360778
 24
3.296962462
 34
0.0
 50
0.0
100
AcDbRotatedDimension
  0
DIMENSION
  5
269
330
1F
100
AcDbEntity
  8
FORMAT
100
AcDbDimension
  2
*D10
 10
3.0071360778
 20
5.3293846368
 30
0.0
 11
5.2347210784
 21
5.3293846368
 31
0.0
 70
   160
 71
     2
 42
-1.0
  3
SLDDIMSTYLE1
100
AcDbAlignedDimension
 13
8.1871360778
 23
4.9281641643
 33
0.0
 14
3.0071360778
 24
4.9281641643
 34
0.0
100
AcDbRotatedDimension
  0
DIMENSION
  5
274
330
1F
100
AcDbEntity
  8
FORMAT
100
AcDbDimension
  2
*D11
 10
0.7793499712
 20
4.9431641643
 30
0.0
 11
0.7793499712
 21
4.1326641643
 31
0.0
 70
   160
 71
     2
 42
-1.0
  3
SLDDIMSTYLE1
100
AcDbAlignedDimension
 13
2.2711360778
 23
3.3221641643
 33
0.0
 14
3.0221360778
 24
4.9431641643
 34
0.0
 50
90.0
100
AcDbRotatedDimension
  0
DIMENSION
  5
27F
330
1F
100
AcDbEntity
  8
FORMAT
100
AcDbDimension
  2
*D12
 10
9.8842910174
 20
3.8121641643
 30
0.0
 11
9.8842910174
 21
3.5654577984
 31
0.0
 70
   160
 71
     2
 42
-1.0
  3
SLDDIMSTYLE2
100
AcDbAlignedDimension
 13
8.9231360778
 23
3.3221641643
 33
0.0
 14
9.4536360778
 24
3.8121641643
 34
0.0
 50
90.0
100
AcDbRotatedDimension
  0
DIMENSION
  5
28B
330
1F
100
AcDbEntity
  8
FORMAT
100
AcDbDimension
  2
*D13
 10
1.2415127551
 20
3.9371641643
 30
0.0
 11
1.2415127551
 21
3.6296641643
 31
0.0
 70
   160
 71
     2
 42
-1.0
  3
SLDDIMSTYLE1
100
AcDbAlignedDimension
 13
2.2711360778
 23
3.3221641643
 33
0.0
 14
1.7406360778
 24
3.9371641643
 34
0.0
 50
90.0
100
AcDbRotatedDimension
  0
ENDSEC
  0
SECTION
  2
OBJECTS
  0
DICTIONARY
  5
C
330
0
100
AcDbDictionary
281
     1
  3
ACAD_GROUP
350
D
  3
ACAD_LAYOUT
350
1A
  3
ACAD_MLINESTYLE
350
17
  3
ACAD_PLOTSETTINGS
350
19
  3
ACAD_PLOTSTYLENAME
350
E
  0
DICTIONARY
  5
D
102
{ACAD_REACTORS
330
C
102
}
330
C
100
AcDbDictionary
281
     1
  0
DICTIONARY
  5
1A
102
{ACAD_REACTORS
330
C
102
}
330
C
100
AcDbDictionary
281
     1
  3
Layout1
350
1E
  3
Layout2
350
26
  3
Model
350
22
  0
DICTIONARY
  5
17
102
{ACAD_REACTORS
330
C
102
}
330
C
100
AcDbDictionary
281
     1
  3
Standard
350
18
  0
DICTIONARY
  5
19
102
{ACAD_REACTORS
330
C
102
}
330
C
100
AcDbDictionary
281
     1
  0
ACDBDICTIONARYWDFLT
  5
E
102
{ACAD_REACTORS
330
C
102
}
330
C
100
AcDbDictionary
281
     1
  3
Normal
350
F
100
AcDbDictionaryWithDefault
340
F
  0
LAYOUT
  5
1E
102
{ACAD_REACTORS
330
1A
102
}
330
1A
100
AcDbPlotSettings
  1

  2
none_device
  4

  6

 40
0.0
 41
0.0
 42
0.0
 43
0.0
 44
0.0
 45
0.0
 46
0.0
 47
0.0
 48
0.0
 49
0.0
140
0.0
141
0.0
142
1.0
143
1.0
 70
   688
 72
     0
 73
     0
 74
     5
  7

 75
    16
147
1.0
148
0.0
149
0.0
100
AcDbLayout
  1
Layout1
 70
     1
 71
     1
 10
0.0
 20
0.0
 11
12.0
 21
9.0
 12
0.0
 22
0.0
 32
0.0
 14
1.0000000000E+20
 24
1.0000000000E+20
 34
1.0000000000E+20
 15
-1.0000000000E+20
 25
-1.0000000000E+20
 35
-1.0000000000E+20
146
0.0
 13
0.0
 23
0.0
 33
0.0
 16
1.0
 26
0.0
 36
0.0
 17
0.0
 27
1.0
 37
0.0
 76
     0
330
1B
  0
LAYOUT
  5
26
102
{ACAD_REACTORS
330
1A
102
}
330
1A
100
AcDbPlotSettings
  1

  2
none_device
  4

  6

 40
0.0
 41
0.0
 42
0.0
 43
0.0
 44
0.0
 45
0.0
 46
0.0
 47
0.0
 48
0.0
 49
0.0
140
0.0
141
0.0
142
1.0
143
1.0
 70
   688
 72
     0
 73
     0
 74
     5
  7

 75
    16
147
1.0
148
0.0
149
0.0
100
AcDbLayout
  1
Layout2
 70
     1
 71
     2
 10
0.0
 20
0.0
 11
0.0
 21
0.0
 12
0.0
 22
0.0
 32
0.0
 14
0.0
 24
0.0
 34
0.0
 15
0.0
 25
0.0
 35
0.0
146
0.0
 13
0.0
 23
0.0
 33
0.0
 16
1.0
 26
0.0
 36
0.0
 17
0.0
 27
1.0
 37
0.0
 76
     0
330
23
  0
LAYOUT
  5
22
102
{ACAD_REACTORS
330
1A
102
}
330
1A
100
AcDbPlotSettings
  1

  2
none_device
  4

  6

 40
0.0
 41
0.0
 42
0.0
 43
0.0
 44
0.0
 45
0.0
 46
0.0
 47
0.0
 48
0.0
 49
0.0
140
0.0
141
0.0
142
1.0
143
1.0
 70
  1712
 72
     0
 73
     0
 74
     0
  7

 75
     0
147
1.0
148
0.0
149
0.0
100
AcDbLayout
  1
Model
 70
     1
 71
     0
 10
0.0
 20
0.0
 11
11.0
 21
8.5
 12
0.0
 22
0.0
 32
0.0
 14
0.0
 24
0.0
 34
0.0
 15
11.0
 25
8.5
 35
0.0
146
0.0
 13
0.0
 23
0.0
 33
0.0
 16
1.0
 26
0.0
 36
0.0
 17
0.0
 27
1.0
 37
0.0
 76
     0
330
1F
331
29
  0
MLINESTYLE
  5
18
102
{ACAD_REACTORS
330
17
102
}
330
17
100
AcDbMlineStyle
  2
Standard
 70
     0
  3

 62
   256
 51
90.0
 52
90.0
 71
     2
 49
0.5
 62
   256
  6
BYLAYER
 49
-0.5
 62
   256
  6
BYLAYER
  0
ACDBPLACEHOLDER
  5
F
102
{ACAD_REACTORS
330
E
102
}
330
E
  0
ENDSEC
  0
EOF
